  0
SECTION
  2
HEADER
  9
$ACADVER
  1
AC1021
  9
$ACADMAINTVER
 70
    25
  9
$DWGCODEPAGE
  3
ANSI_1252
  9
$INSBASE
 10
0.0
 20
0.0
 30
0.0
  9
$EXTMIN
 10
-515.7830776822366
 20
-182.5124865289267
 30
0.0
  9
$EXTMAX
 10
940.7199822841296
 20
957.1001025221069
 30
0.0
  9
$LIMMIN
 10
0.0
 20
0.0
  9
$LIMMAX
 10
1056.0
 20
816.0
  9
$ORTHOMODE
 70
     1
  9
$REGENMODE
 70
     1
  9
$FILLMODE
 70
     1
  9
$QTEXTMODE
 70
     0
  9
$MIRRTEXT
 70
     1
  9
$LTSCALE
 40
1.0
  9
$ATTMODE
 70
     1
  9
$TEXTSIZE
 40
6.0
  9
$TRACEWID
 40
0.05
  9
$TEXTSTYLE
  7
Standard
  9
$CLAYER
  8
0
  9
$CELTYPE
  6
ByLayer
  9
$CECOLOR
 62
   256
  9
$CELTSCALE
 40
1.0
  9
$DISPSILH
 70
     0
  9
$DIMSCALE
 40
96.0
  9
$DIMASZ
 40
0.055
  9
$DIMEXO
 40
0.0625
  9
$DIMDLI
 40
0.0675
  9
$DIMRND
 40
0.0
  9
$DIMDLE
 40
0.0
  9
$DIMEXE
 40
0.0625
  9
$DIMTP
 40
0.0
  9
$DIMTM
 40
0.0
  9
$DIMTXT
 40
0.055
  9
$DIMCEN
 40
0.09
  9
$DIMTSZ
 40
0.0
  9
$DIMTOL
 70
     0
  9
$DIMLIM
 70
     0
  9
$DIMTIH
 70
     1
  9
$DIMTOH
 70
     1
  9
$DIMSE1
 70
     0
  9
$DIMSE2
 70
     0
  9
$DIMTAD
 70
     0
  9
$DIMZIN
 70
     0
  9
$DIMBLK
  1
Oblique
  9
$DIMASO
 70
     1
  9
$DIMSHO
 70
     1
  9
$DIMPOST
  1

  9
$DIMAPOST
  1

  9
$DIMALT
 70
     0
  9
$DIMALTD
 70
     2
  9
$DIMALTF
 40
25.4
  9
$DIMLFAC
 40
1.0
  9
$DIMTOFL
 70
     0
  9
$DIMTVP
 40
0.0
  9
$DIMTIX
 70
     0
  9
$DIMSOXD
 70
     0
  9
$DIMSAH
 70
     0
  9
$DIMBLK1
  1

  9
$DIMBLK2
  1

  9
$DIMSTYLE
  2
Jennifer
  9
$DIMCLRD
 70
     0
  9
$DIMCLRE
 70
     0
  9
$DIMCLRT
 70
     0
  9
$DIMTFAC
 40
1.0
  9
$DIMGAP
 40
0.0625
  9
$DIMJUST
 70
     0
  9
$DIMSD1
 70
     0
  9
$DIMSD2
 70
     0
  9
$DIMTOLJ
 70
     1
  9
$DIMTZIN
 70
     0
  9
$DIMALTZ
 70
     0
  9
$DIMALTTZ
 70
     0
  9
$DIMUPT
 70
     0
  9
$DIMDEC
 70
     4
  9
$DIMTDEC
 70
     4
  9
$DIMALTU
 70
     2
  9
$DIMALTTD
 70
     2
  9
$DIMTXSTY
  7
Standard
  9
$DIMAUNIT
 70
     0
  9
$DIMADEC
 70
     0
  9
$DIMALTRND
 40
0.0
  9
$DIMAZIN
 70
     0
  9
$DIMDSEP
 70
    46
  9
$DIMATFIT
 70
     3
  9
$DIMFRAC
 70
     0
  9
$DIMLDRBLK
  1

  9
$DIMLUNIT
 70
     4
  9
$DIMLWD
 70
    -2
  9
$DIMLWE
 70
    -2
  9
$DIMTMOVE
 70
     0
  9
$DIMFXL
 40
1.0
  9
$DIMFXLON
 70
     0
  9
$DIMJOGANG
 40
0.7853981633974483
  9
$DIMTFILL
 70
     0
  9
$DIMTFILLCLR
 70
     0
  9
$DIMARCSYM
 70
     0
  9
$DIMLTYPE
  6

  9
$DIMLTEX1
  6

  9
$DIMLTEX2
  6

  9
$LUNITS
 70
     4
  9
$LUPREC
 70
     4
  9
$SKETCHINC
 40
0.1
  9
$FILLETRAD
 40
0.5
  9
$AUNITS
 70
     0
  9
$AUPREC
 70
     0
  9
$MENU
  1
.
  9
$ELEVATION
 40
0.0
  9
$PELEVATION
 40
0.0
  9
$THICKNESS
 40
0.0
  9
$LIMCHECK
 70
     0
  9
$CHAMFERA
 40
0.5
  9
$CHAMFERB
 40
0.5
  9
$CHAMFERC
 40
1.0
  9
$CHAMFERD
 40
0.0
  9
$SKPOLY
 70
     0
  9
$TDCREATE
 40
2453198.124300463
  9
$TDUCREATE
 40
2453198.207633796
  9
$TDUPDATE
 40
2453320.249609375
  9
$TDUUPDATE
 40
2453320.332942708
  9
$TDINDWG
 40
0.9666701505
  9
$TDUSRTIMER
 40
0.9666701505
  9
$USRTIMER
 70
     1
  9
$ANGBASE
 50
0.0
  9
$ANGDIR
 70
     0
  9
$PDMODE
 70
     0
  9
$PDSIZE
 40
0.0
  9
$PLINEWID
 40
0.0
  9
$SPLFRAME
 70
     0
  9
$SPLINETYPE
 70
     6
  9
$SPLINESEGS
 70
     8
  9
$HANDSEED
  5
172C
  9
$SURFTAB1
 70
     6
  9
$SURFTAB2
 70
     6
  9
$SURFTYPE
 70
     6
  9
$SURFU
 70
     6
  9
$SURFV
 70
     6
  9
$UCSBASE
  2

  9
$UCSNAME
  2

  9
$UCSORG
 10
0.0
 20
0.0
 30
0.0
  9
$UCSXDIR
 10
1.0
 20
0.0
 30
0.0
  9
$UCSYDIR
 10
0.0
 20
1.0
 30
0.0
  9
$UCSORTHOREF
  2

  9
$UCSORTHOVIEW
 70
     0
  9
$UCSORGTOP
 10
0.0
 20
0.0
 30
0.0
  9
$UCSORGBOTTOM
 10
0.0
 20
0.0
 30
0.0
  9
$UCSORGLEFT
 10
0.0
 20
0.0
 30
0.0
  9
$UCSORGRIGHT
 10
0.0
 20
0.0
 30
0.0
  9
$UCSORGFRONT
 10
0.0
 20
0.0
 30
0.0
  9
$UCSORGBACK
 10
0.0
 20
0.0
 30
0.0
  9
$PUCSBASE
  2

  9
$PUCSNAME
  2

  9
$PUCSORG
 10
0.0
 20
0.0
 30
0.0
  9
$PUCSXDIR
 10
1.0
 20
0.0
 30
0.0
  9
$PUCSYDIR
 10
0.0
 20
1.0
 30
0.0
  9
$PUCSORTHOREF
  2

  9
$PUCSORTHOVIEW
 70
     0
  9
$PUCSORGTOP
 10
0.0
 20
0.0
 30
0.0
  9
$PUCSORGBOTTOM
 10
0.0
 20
0.0
 30
0.0
  9
$PUCSORGLEFT
 10
0.0
 20
0.0
 30
0.0
  9
$PUCSORGRIGHT
 10
0.0
 20
0.0
 30
0.0
  9
$PUCSORGFRONT
 10
0.0
 20
0.0
 30
0.0
  9
$PUCSORGBACK
 10
0.0
 20
0.0
 30
0.0
  9
$USERI1
 70
     0
  9
$USERI2
 70
     0
  9
$USERI3
 70
     0
  9
$USERI4
 70
     0
  9
$USERI5
 70
     0
  9
$USERR1
 40
0.0
  9
$USERR2
 40
0.0
  9
$USERR3
 40
0.0
  9
$USERR4
 40
0.0
  9
$USERR5
 40
0.0
  9
$WORLDVIEW
 70
     1
  9
$SHADEDGE
 70
     3
  9
$SHADEDIF
 70
    70
  9
$TILEMODE
 70
     1
  9
$MAXACTVP
 70
    64
  9
$PINSBASE
 10
0.0
 20
0.0
 30
0.0
  9
$PLIMCHECK
 70
     0
  9
$PEXTMIN
 10
1.029041703291766
 20
0.7937500251559761
 30
0.0
  9
$PEXTMAX
 10
9.261375329625887
 20
7.143750226403784
 30
0.0
  9
$PLIMMIN
 10
-0.2812499887361301
 20
-0.5845832073782372
  9
$PLIMMAX
 10
8.218749770967978
 20
10.41541655232587
  9
$UNITMODE
 70
     0
  9
$VISRETAIN
 70
     1
  9
$PLINEGEN
 70
     0
  9
$PSLTSCALE
 70
     1
  9
$TREEDEPTH
 70
  3020
  9
$CMLSTYLE
  2
Standard
  9
$CMLJUST
 70
     0
  9
$CMLSCALE
 40
1.0
  9
$PROXYGRAPHICS
 70
     1
  9
$MEASUREMENT
 70
     0
  9
$CELWEIGHT
370
    -1
  9
$ENDCAPS
280
     0
  9
$JOINSTYLE
280
     0
  9
$LWDISPLAY
290
     0
  9
$INSUNITS
 70
     1
  9
$HYPERLINKBASE
  1

  9
$STYLESHEET
  1

  9
$XEDIT
290
     1
  9
$CEPSNTYPE
380
     0
  9
$PSTYLEMODE
290
     1
  9
$FINGERPRINTGUID
  2
{B27C0668-D2D1-11D8-8FDE-0040D00987FD}
  9
$VERSIONGUID
  2
{99556283-2801-48E5-B0D0-3A6795AEF9DA}
  9
$EXTNAMES
290
     1
  9
$PSVPSCALE
 40
0.0
  9
$OLESTARTUP
290
     0
  9
$SORTENTS
280
   127
  9
$INDEXCTL
280
     0
  9
$HIDETEXT
280
     1
  9
$XCLIPFRAME
290
     0
  9
$HALOGAP
280
     0
  9
$OBSCOLOR
 70
   257
  9
$OBSLTYPE
280
     0
  9
$INTERSECTIONDISPLAY
280
     0
  9
$INTERSECTIONCOLOR
 70
   257
  9
$DIMASSOC
280
     1
  9
$PROJECTNAME
  1

  9
$CAMERADISPLAY
290
     0
  9
$LENSLENGTH
 40
50.0
  9
$CAMERAHEIGHT
 40
0.0
  9
$STEPSPERSEC
 40
2.0
  9
$STEPSIZE
 40
6.0
  9
$3DDWFPREC
 40
2.0
  9
$PSOLWIDTH
 40
0.25
  9
$PSOLHEIGHT
 40
4.0
  9
$LOFTANG1
 40
1.570796326794897
  9
$LOFTANG2
 40
1.570796326794897
  9
$LOFTMAG1
 40
0.0
  9
$LOFTMAG2
 40
0.0
  9
$LOFTPARAM
 70
     7
  9
$LOFTNORMALS
280
     1
  9
$LATITUDE
 40
37.795
  9
$LONGITUDE
 40
-122.394
  9
$NORTHDIRECTION
 40
0.0
  9
$TIMEZONE
 70
 -8000
  9
$LIGHTGLYPHDISPLAY
280
     1
  9
$TILEMODELIGHTSYNCH
280
     1
  9
$SOLIDHIST
280
     1
  9
$SHOWHIST
280
     1
  9
$DWFFRAME
280
     2
  9
$DGNFRAME
280
     2
  9
$REALWORLDSCALE
290
     1
  9
$INTERFERECOLOR
 62
   256
  9
$CSHADOW
280
     0
  9
$SHADOWPLANELOCATION
 40
0.0
  0
ENDSEC
  0
SECTION
  2
CLASSES
  0
CLASS
  1
ACDBDICTIONARYWDFLT
  2
AcDbDictionaryWithDefault
  3
ObjectDBX Classes
 90
        0
 91
        4
280
     0
281
     0
  0
CLASS
  1
ACDBPLACEHOLDER
  2
AcDbPlaceHolder
  3
ObjectDBX Classes
 90
        0
 91
        1
280
     0
281
     0
  0
CLASS
  1
LAYOUT
  2
AcDbLayout
  3
ObjectDBX Classes
 90
        0
 91
        1
280
     0
281
     0
  0
CLASS
  1
DICTIONARYVAR
  2
AcDbDictionaryVar
  3
ObjectDBX Classes
 90
        0
 91
        4
280
     0
281
     0
  0
CLASS
  1
SCALE
  2
AcDbScale
  3
ObjectDBX Classes
 90
     1153
 91
        4
280
     0
281
     0
  0
ENDSEC
  0
SECTION
  2
TABLES
  0
TABLE
  2
VPORT
  5
8
330
0
100
AcDbSymbolTable
 70
     2
  0
VPORT
  5
1704
330
8
100
AcDbSymbolTableRecord
100
AcDbViewportTableRecord
  2
*Active
 70
     0
 10
0.0
 20
0.0
 11
1.0
 21
1.0
 12
187.5050760275103
 22
224.2413734706707
 13
0.0
 23
0.0
 14
120.0
 24
120.0
 15
120.0
 25
120.0
 16
0.0
 26
0.0
 36
1.0
 17
0.0
 27
0.0
 37
0.0
 40
302.5249857247092
 41
1.57027027027027
 42
50.0
 43
0.0
 44
0.0
 50
0.0
 51
0.0
 71
     0
 72
   100
 73
     1
 74
     3
 75
     0
 76
     1
 77
     0
 78
     0
281
     0
 65
     1
110
0.0
120
0.0
130
0.0
111
1.0
121
0.0
131
0.0
112
0.0
122
1.0
132
0.0
 79
     0
146
0.0
 60
     3
 61
     5
292
     1
282
     1
141
0.0
142
0.0
 63
   256
  0
ENDTAB
  0
TABLE
  2
LTYPE
  5
5
330
0
100
AcDbSymbolTable
 70
     1
  0
LTYPE
  5
14
330
5
100
AcDbSymbolTableRecord
100
AcDbLinetypeTableRecord
  2
ByBlock
 70
     0
  3

 72
    65
 73
     0
 40
0.0
  0
LTYPE
  5
15
330
5
100
AcDbSymbolTableRecord
100
AcDbLinetypeTableRecord
  2
ByLayer
 70
     0
  3

 72
    65
 73
     0
 40
0.0
  0
LTYPE
  5
16
330
5
100
AcDbSymbolTableRecord
100
AcDbLinetypeTableRecord
  2
Continuous
 70
     0
  3
Solid line
 72
    65
 73
     0
 40
0.0
  0
ENDTAB
  0
TABLE
  2
LAYER
  5
2
102
{ACAD_XDICTIONARY
360
1703
102
}
330
0
100
AcDbSymbolTable
 70
     2
  0
LAYER
  5
10
330
2
100
AcDbSymbolTableRecord
100
AcDbLayerTableRecord
  2
0
 70
     0
 62
     7
  6
Continuous
370
    -3
390
F
347
0
  0
LAYER
  5
B5
330
2
100
AcDbSymbolTableRecord
100
AcDbLayerTableRecord
  2
Defpoints
 70
     0
 62
     7
  6
Continuous
290
     0
370
    -3
390
F
347
0
  0
ENDTAB
  0
TABLE
  2
STYLE
  5
3
330
0
100
AcDbSymbolTable
 70
     1
  0
STYLE
  5
11
330
3
100
AcDbSymbolTableRecord
100
AcDbTextStyleTableRecord
  2
Standard
 70
     0
 40
0.0
 41
1.0
 50
0.0
 71
     0
 42
6.0
  3

  4

1001
ACAD
1000
Modern No. 20
1071
 33554450
  0
ENDTAB
  0
TABLE
  2
VIEW
  5
6
330
0
100
AcDbSymbolTable
 70
     0
  0
ENDTAB
  0
TABLE
  2
UCS
  5
7
330
0
100
AcDbSymbolTable
 70
     0
  0
ENDTAB
  0
TABLE
  2
APPID
  5
9
330
0
100
AcDbSymbolTable
 70
     1
  0
APPID
  5
12
330
9
100
AcDbSymbolTableRecord
100
AcDbRegAppTableRecord
  2
ACAD
 70
     0
  0
ENDTAB
  0
TABLE
  2
DIMSTYLE
  5
A
330
0
100
AcDbSymbolTable
 70
     2
100
AcDbDimStyleTable
  0
DIMSTYLE
105
A3
102
{ACAD_REACTORS
330
B4
330
C3
330
D1
330
FC8
330
FD6
330
FE5
330
FF4
330
1003
330
1020
330
102E
330
1044
330
1052
330
10DB
330
10E9
330
10F7
330
1106
330
113E
330
114C
330
115C
330
116A
330
1178
330
1186
330
1194
330
11A2
330
11B0
330
11BE
330
1299
330
12CF
330
12DD
330
12EB
330
12F9
330
1307
330
1315
330
1323
330
1331
330
133F
330
1369
330
1376
330
1404
330
1405
330
1406
330
1407
330
1408
330
1409
330
140A
330
140B
330
140C
330
140D
330
140E
330
140F
330
1410
330
1411
330
1412
330
1413
330
1414
330
1415
330
1417
330
1418
330
1419
330
141A
330
141B
330
141C
330
141D
330
141E
330
141F
330
1420
330
1421
330
1422
330
1424
330
16EE
102
}
330
A
100
AcDbSymbolTableRecord
100
AcDbDimStyleTableRecord
  2
Jennifer
 70
     0
 40
96.0
 41
0.055
 43
0.0675
 44
0.0625
140
0.055
147
0.0625
277
     4
340
11
342
9F
  0
ENDTAB
  0
TABLE
  2
BLOCK_RECORD
  5
1
330
0
100
AcDbSymbolTable
 70
   127
  0
BLOCK_RECORD
  5
1F
330
1
100
AcDbSymbolTableRecord
100
AcDbBlockTableRecord
  2
*Model_Space
340
22
 70
     0
280
     1
281
     0
  0
BLOCK_RECORD
  5
1B
330
1
100
AcDbSymbolTableRecord
100
AcDbBlockTableRecord
  2
*Paper_Space
340
1E
 70
     0
280
     1
281
     0
  0
BLOCK_RECORD
  5
23
330
1
100
AcDbSymbolTableRecord
100
AcDbBlockTableRecord
  2
*Paper_Space0
340
26
 70
     0
280
     1
281
     0
  0
BLOCK_RECORD
  5
9F
330
1
100
AcDbSymbolTableRecord
100
AcDbBlockTableRecord
  2
_Oblique
340
0
102
{BLKREFS
331
BB
331
BC
331
C9
331
CA
331
D7
331
D8
331
103E
331
103F
331
FDD
331
FDE
331
FEC
331
FED
331
FFB
331
FFC
331
100A
331
100B
331
1026
331
1027
331
1032
331
1033
331
104A
331
104B
331
1058
331
1059
331
10E1
331
10E2
331
10EF
331
10F0
331
10FE
331
10FF
331
110C
331
110D
331
1144
331
1145
331
1151
331
1152
331
1285
331
1286
331
1253
331
1254
331
125D
331
125E
331
127B
331
127C
331
1267
331
1268
331
1271
331
1272
331
123F
331
1240
331
1249
331
124A
331
129E
331
129F
331
138E
331
138F
331
13AE
331
13AF
331
13C2
331
13C3
331
13CC
331
13CD
331
13D6
331
13D7
331
13E0
331
13E1
331
13EA
331
13EB
331
13F4
331
13F5
331
13FE
331
13FF
331
136E
331
136F
331
137A
331
137B
331
16DA
331
16DB
331
15B4
331
15B5
331
15BE
331
15BF
331
15C8
331
15C9
331
15D2
331
15D3
331
15DC
331
15DD
331
15E4
331
15E5
331
15EE
331
15EF
331
15F8
331
15F9
331
1602
331
1603
331
160A
331
160B
331
1614
331
1615
331
161C
331
161D
331
1626
331
1627
331
1630
331
1631
331
163A
331
163B
331
1643
331
1644
331
164C
331
164D
331
1656
331
1657
331
1660
331
1661
331
166A
331
166B
331
1674
331
1675
331
167E
331
167F
331
1688
331
1689
331
1692
331
1693
331
169A
331
169B
331
16A4
331
16A5
331
16AC
331
16AD
331
16B4
331
16B5
331
16BC
331
16BD
331
16C6
331
16C7
331
16F4
331
16F5
102
}
 70
     0
280
     1
281
     0
  0
BLOCK_RECORD
  5
B6
330
1
100
AcDbSymbolTableRecord
100
AcDbBlockTableRecord
  2
*D2
340
0
 70
     0
280
     1
281
     0
  0
BLOCK_RECORD
  5
C4
330
1
100
AcDbSymbolTableRecord
100
AcDbBlockTableRecord
  2
*D3
340
0
 70
     0
280
     1
281
     0
  0
BLOCK_RECORD
  5
D2
330
1
100
AcDbSymbolTableRecord
100
AcDbBlockTableRecord
  2
*D4
340
0
 70
     0
280
     1
281
     0
  0
BLOCK_RECORD
  5
55E
330
1
100
AcDbSymbolTableRecord
100
AcDbBlockTableRecord
  2
Window - Wood Frame 36 x 36 in.
340
0
310
280000002000000020000000010004000000000000020000000000000000000000000000000000000000000000008000008000000080800080000000800080008080000080808000C0C0C0000000FF0000FF000000FFFF00FF000000FF00FF00FFFF0000FFFFFF00000000000000000000000000000000000F000000000000
310
0000000000000000F00F0000000000000000000000000000F00F00FFFFFFFFFFFFFFFFFFFFFFFF00F00F00FFFFFFFFFFFFFFFFFFFFFFFF00F00F00FFFFFFFFFFFFFFFFFFFFFFFF00F00F00FFFFFFFFFFFFFFFFFFFFFFFF00F00F00FFFFFFFFFFFFFFFFFFFFFFFF00F00F00FFFFFFFFFFFFFFFFFFFFFFFF00F00F00FFFFFFFF
310
FFFFFFFFFFFFFFFF00F00F00FFFFFFFFFFFFFFFFFFFFFFFF00F00F00FFFFFFFFFFFFFFFFFFFFFFFF00F00F00FFFFFFFFFFFFFFFFFFFFFFFF00F00F00FFFFFFFFFFFFFFFFFFFFFFFF00F00F0000000000000000000000000000F00F0000000000000000000000000000F0000000000000000000000000000000F00000000000
310
0000000000000000000F00000FFFFFFFFFFFFFFFFFFFFFFFFFF000000FFFFFFFFFFFFFFFFFFFFFFFFFF000000FFFFFFFFFFFFFFFFFFFFFFFFFF000000FFFFFFFFFFFFFFFFFFFFFFFFFF000000FFFFFFFFFFFFFFFFFFFFFFFFFF000000FFFFFFFFFFFFFFFFFFFFFFFFFF000000FFFFFFFFFFFFFFFFFFFFFFFFFF000000FFFFF
310
FFFFFFFFFFFFFFFFFFFFF000000FFFFFFFFFFFFFFFFFFFFFFFFFF000000FFFFFFFFFFFFFFFFFFFFFFFFFF000000FFFFFFFFFFFFFFFFFFFFFFFFFF000000000000000000000000000000000000000000000000000000000000000000000000000000000000000000000000000
102
{BLKREFS
331
56F
102
}
 70
     1
280
     1
281
     0
1001
ACAD
1000
DesignCenter Data
1002
{
1070
     1
1070
     1
1002
}
  0
BLOCK_RECORD
  5
57E
330
1
100
AcDbSymbolTableRecord
100
AcDbBlockTableRecord
  2
Toilet - top
340
0
310
280000002000000020000000010004000000000000020000000000000000000000000000000000000000000000008000008000000080800080000000800080008080000080808000C0C0C0000000FF0000FF000000FFFF00FF000000FF00FF00FFFF0000FFFFFF00FFFFFFFFFFFFFFF000FFFFFFFFFFFFFFFFFFFFFFFFFFF0
310
000000FFFFFFFFFFFFFFFFFFFFFFFF00FFFF000FFFFFFFFFFFFFFFFFFFFFF00FFFFFFF00FFFFFFFFFFFFFFFFFFFFF0FFFFFFFFF0FFFFFFFFFFFFFFFFFFFF00FFFFFFFFF00FFFFFFFFFFFFFFFFFF00FFFFFFFFFFF00FFFFFFFFFFFFFFFFF00FFFFFFFFFFF00FFFFFFFFFFFFFFFF00FFFFFFFFFFFF0F0FFFFFFFFFFFFFFF00FF
310
FFFFFFFFFF0F0FFFFFFFFFFFFFFF00FFFFFFFFFFFF0F0FFFFFFFFFFFFFFF00FFFFFFFFFFFF0F0FFFFFFFFFFFFFFF00FFFFFFFFFFFF0F0FFFFFFFFFFFFFFF00FFFFFFFFFFFF00FFFFFFFFFFFFFFFF0F0FFFFFFFFFF0F0FFFFFFFFFFFFFFFF0F0FFFFFFFFFF0F0FFFFFFFFFFFFFFFFF0F0FFFFFFFFF0F0FFFFFFFFFFFFFFFFF0
310
F0FFFFFFFF0F0FFFFFFFFFFFFFFFFFFF0F000000000FFFFFFFFFFFFFFFFFFFFF0FFFFFFFFFFF0FFFFFFFFFFFFFFFFFFFF0FFFFFFFFF0FFFFFFFFFFFFFFFFFFFFF0FFFFFFFFF0FFFFFFFFFFFFFFFF0000FF0FFFFFFF0FFFFFFFFFFFFFFFFF000000000000000000000FFFFFFFFFFF0F00000000000000000F0FFFFFFFFFFF00
310
FFFFFFFFFFFFFFFFF00FFFFFFFFFFF00FFFFFFFFFFFFFFFFF00FFFFFFFFFFF00FFFFFFFFFFFFFFFFF00FFFFFFFFFFF00FFFFFFFFFFFFFFFFF00FFFFFFFFFFF00FFFFFFFFFFFFFFFFF00FFFFFFFFFFF000000000000000000000FFFFFFFFFFF000000000000000000000FFFFF
102
{BLKREFS
331
59D
102
}
 70
     1
280
     1
281
     0
1001
ACAD
1000
DesignCenter Data
1002
{
1070
     1
1070
     1
1002
}
  0
BLOCK_RECORD
  5
59E
330
1
100
AcDbSymbolTableRecord
100
AcDbBlockTableRecord
  2
Sink - Oval top
340
0
310
280000002000000020000000010004000000000000020000000000000000000000000000000000000000000000008000008000000080800080000000800080008080000080808000C0C0C0000000FF0000FF000000FFFF00FF000000FF00FF00FFFF0000FFFFFF00FFFFFFFFFFFFFFFFFFFFFFFFFFFFFFFFFFFFFFFFFFFFFF
310
FFFFFFFFFFFFFFFFFFFFFFFFFFFFFFFFFFFFFFFFFFFFFFFFFFFFFFFFFFFFFFF00000FFFFFFFFFFFFFFFFFFFFFFF0000000000000FFFFFFFFFFFFFFFFF00F000FFFFF000000FFFFFFFFFFFFF00F00FFFFFFFFFFFF0F00FFFFFFFFFF0F00FFFFFFFFFFFFFFF00F0FFFFFFFF0F0FFFFFFFF000FFFFFFFF0F0FFFFFFF00FFFFFF0
310
00FFF0000FFFFF00FFFFFF00FFFFF00FFFFFFFFFF00FFFF00FFFFF00FFFF0FFFFFFFFFFFFFF0FFFF00FFF00FFFFF0FFFFFFFFFFFFFF0FFFF00FFF00FFFF0FFFFFFFFFFFFFFFF0FFFF00F00FFFFF0FFFFFF0000FFFFFF0FFFF00F00FFFF0FFFFFFF0000FFFFFFF0FFFF0000FFFF0FFFFFFF0000FFFFFFF0FFFF0000FFFF0FFF
310
FFFF0000FFFFFF0FFFFF00F00FFFF0FFFFFFF00FFFFFFF0FFFF00FF00FFFF0FFFFFFFFFFFFFFF0FFFFF00FFF00FFFF0FFFFFFFFFFFFFF0FFFFF00FFF0F0FFFF0FFFFFFFFFFFF0FFFFF00FFFFF00FFFFF00FFFFFFFF00FFFFF00FFFFFF0F0FFFFFF00000000FFFFFFF00FFFFFFF0F0FFFFFFFFFFFFFFFFFF000FFFFFFFFF000
310
0FFFFFFFFFFFFFF0000FFFFFFFFFFFF000000FFFFFF000000FFFFFFFFFFFFFFFF0000000000F000FFFFFFFFFFFFFFFFFFFFFF0000000FFFFFFFFFFFFFFFFFFFFFFFFFFFFFFFFFFFFFFFFFFFFFFFFFFFFFFFFFFFFFFFFFFFFFFFFFFFFFFFFFFFFFFFFFFFFFFFFFFFFFFFFFFFF
102
{BLKREFS
331
5AD
102
}
 70
     1
280
     1
281
     0
1001
ACAD
1000
DesignCenter Data
1002
{
1070
     1
1070
     1
1002
}
  0
BLOCK_RECORD
  5
5AE
330
1
100
AcDbSymbolTableRecord
100
AcDbBlockTableRecord
  2
Range-Oven - 30 in top
340
0
310
280000002000000020000000010004000000000000020000000000000000000000000000000000000000000000008000008000000080800080000000800080008080000080808000C0C0C0000000FF0000FF000000FFFF00FF000000FF00FF00FFFF0000FFFFFF00FFFFFFFFFFFFFFFFFFFFFFFFFFFFFFFFFFFFFFFFFFFFFF
310
FFFFFFFFFFFFFFFFFFFFFFFFFFFFFFFFFFFFFFFFFFFFFFFFFFFF0000000000000000000000000000FFFF0000000000000000000000000000FF000000000000000000000000000000000FFFFFFFFFFFFFFFFFFFFFFFFFFFFFF00FFFFFFFFFFFFFFFFFFFFFFF000FFFF00FFFF000FFFF00000000FF000000FFF00FFF00000FFF
310
00000000F000000000F00FF0000000FF000F0000F000000000F00FF000F000FF000F0000F0000F0000F00FF0000000FF000F0000F000000000F00FFF000000FF000F0000F0000000F0F00FFFF0000FFF000F0000FF0000000FF00FFFFFFFFFFF000F0000FFF00000FFF00FFFFF0FFFFF000F0000FFFFFFFFFFF00FFF000000
310
FF000F0000FFFFF0FFFFF00FF0000000FF000F0000FFF00000FFF00F0F0000000F000F0000FF000000FFF00F000000000F000F0000FF0000000FF00F0000F0000F000F0000FF000F000FF00F0F0000000F000F0000FF000000FFF00FF0000000FF000F0000FFF00000FFF00FFF000000FF00000000FFFF000FFFF00FFFF000
310
FFFF00000000FFFFFFFFFFF00FFFFFFFFFFFFFFFFFFFFFFFFFFFFFF0000000000000000000000000000000000FFFFFFFFFFFFFFFFFFFFFFFFFFFFFF00FFFFFFFFFFFFFFFFFFFFFFFFFFFFFF000000000000000000000000000000000FFFFFFFFFFFFFFFFFFFFFFFFFFFFFFFF
102
{BLKREFS
331
5D3
102
}
 70
     1
280
     1
281
     0
1001
ACAD
1000
DesignCenter Data
1002
{
1070
     1
1070
     1
1002
}
  0
BLOCK_RECORD
  5
5D4
330
1
100
AcDbSymbolTableRecord
100
AcDbBlockTableRecord
  2
Sink-double - 36 in top
340
0
310
280000002000000020000000010004000000000000020000000000000000000000000000000000000000000000008000008000000080800080000000800080008080000080808000C0C0C0000000FF0000FF000000FFFF00FF000000FF00FF00FFFF0000FFFFFF00FFFFFFFFFFFFFFFFFFFFFFFFFFFFFFFFFFFFFFFFFFFFFF
310
FFFFFFFFFFFFFFFFFFFFFFFFFFFFFFFFFFFFFFFFFFFFFFFFFFFFFFFFFFFFFFFFFFFFFFFFFFFFFFFFFFFFFFFFFFFFFFFFFFFFFFFFFFFFFFFFFFFFFFFFFFFFFFFFFFFFFFFFFFFFFFFFFFFFFFFFFFFFFFFFFFFFFFFFFFFFFFFFFF0F0000000000000000000000000000000FF000000000000FFF000000000000FF000FFFFFFFFF
310
FFF00FFFFFFFFFFFF0F000FFFFFFFFFFFFF00FFFFFFFFFFFFF0000FFFFFFFFFFFFF00FFFFFFFFFFFFF0000FFFFFFFFFFFFF00FFFFFFFFFFFFF0000FFFFFF0FFFFFF00FFFFFF0FFFFFF0000FFFFF000FFFFF00FFFFF000FFFFF0000FFFFFF00FFFFF00FFFFF00FFFFFF0000FFFFFFFFFFFFF00FFFFFFFFFFFFF0000FFFFFFFF
310
FFFFF00FFFFFFFFFFFFF0000FFFFFFFFFFFFF00FFFFFFFFFFFFF000FFFFFFFFFFFFFF00FFFFFFFFFFFFF000F000000000000F000000000000000F00FFFFFFFFFFFFFFFFFFFFFFFFFFFFFF0000000000000000000000000000000000FFFFFFFFFFFFFFFFFFFFFFFFFFFFFF0FFFFFFFFFFFFFFFFFFFFFFFFFFFFFFF000000000
310
0000000000000000000000F0FFFFFFFFFFFFFFFFFFFFFFFFFFFFFFFFFFFFFFFFFFFFFFFFFFFFFFFFFFFFFFFFFFFFFFFFFFFFFFFFFFFFFFFFFFFFFFFFFFFFFFFFFFFFFFFFFFFFFFFFFFFFFFFFFFFFFFFFFFFFFFFFFFFFFFFFFFFFFFFFFFFFFFFFFFFFFFFFFFFFFFFFFFFFFFFF
102
{BLKREFS
331
5F9
102
}
 70
     1
280
     1
281
     0
1001
ACAD
1000
DesignCenter Data
1002
{
1070
     1
1070
     1
1002
}
  0
BLOCK_RECORD
  5
5FA
330
1
100
AcDbSymbolTableRecord
100
AcDbBlockTableRecord
  2
Refrigerator-2 door - 36 in top
340
0
310
280000002000000020000000010004000000000000020000000000000000000000000000000000000000000000008000008000000080800080000000800080008080000080808000C0C0C0000000FF0000FF000000FFFF00FF000000FF00FF00FFFF0000FFFFFF00FFFFFFFFFFFFFFFFFFFFFFFFFFFFFFFFFFFFFFFFFFFFFF
310
FFFFFFFFFFFFFFFFFFFFFFFFFFFFFFFFFFFFFFFFFFFFFFFFFFFFFFFFFFFFFFFFFFFFFFFFFFFFFFFFFFFFFFFFFFF000FFFFFFFFFFFFFFFFFFFF00000000000000000000000000000000000000000000000000000000000000000FFFFFFFFFFFFFFFFFFFFFFFFFFFFFF00FFFFFFFFFFFFFFFFFFFFFFFFFFFFFF00FFFFFFFFFFF
310
FFFFFFFFFFFFFFFFFFF00FFFFFFFFFFFFFFFFFFFFFFFFFFFFFF00FFFFFFFFFFFFFFFFFFFFFFFFFFFFFF00FFFFFFFFFFFFFFFFFFFFFFFFFFFFFF00FFFFFFFFFFFFFFFFFFFFFFFFFFFFFF00FFFFFFFFFFFFFFFFFFFFFFFFFFFFFF00FFFFFFFFFFFFFFFFFFFFFFFFFFFFFF00FFFFFFFFFFFFFFFFFFFFFFFFFFFFFF00FFFFFFFFF
310
FFFFFFFFFFFFFFFFFFFFF00FFFFFFFFFFFFFFFFFFFFFFFFFFFFFF00FFFFFFFFFFFFFFFFFFFFFFFFFFFFFF00FFFFFFFFFFFFFFFFFFFFFFFFFFFFFF00FFFFFFFFFFFFFFFFFFFFFFFFFFFFFF00FFFFFFFFFFFFFFFFFFFFFFFFFFFFFF00FFFFFFFFFFFFFFFFFFFFFFFFFFFFFF00FFFFFFFFFFFFFFFFFFFFFFFFFFFFFF00FFFFFFF
310
FFFFFFFFFFFFFFFFFFFFFFF00FFFFFFFFFFFFFFFFFFFFFFFFFFFFFF00FFFFFFFFFFFFFFFFFFFFFFFFFFFFFF00FFFFFFFFFFFFFFFFFFFFFFFFFFFFFF000000000000000000000000000000000FFFFFFFFFFFFFFFFFFFFFFFFFFFFFFFFFFFFFFFFFFFFFFFFFFFFFFFFFFFFFFFF
102
{BLKREFS
331
608
102
}
 70
     1
280
     1
281
     0
1001
ACAD
1000
DesignCenter Data
1002
{
1070
     1
1070
     1
1002
}
  0
BLOCK_RECORD
  5
609
330
1
100
AcDbSymbolTableRecord
100
AcDbBlockTableRecord
  2
Sink-single - 30 in top
340
0
310
280000002000000020000000010004000000000000020000000000000000000000000000000000000000000000008000008000000080800080000000800080008080000080808000C0C0C0000000FF0000FF000000FFFF00FF000000FF00FF00FFFF0000FFFFFF00FFFFFFFFFFFFFFFFFFFFFFFFFFFFFFFFFFFFFFFFFFFFFF
310
FFFFFFFFFFFFFFFFFFFFFFFFFFFFFFFFFFFFFFFFFFFFFFFFFFFFFFFFFFFFFFFFFFFFFFFFFFFFFFFFFFFFFFFFFFFFFFFFFFFFFFFFFFFFFFFFFFFFFFFFFFFFFFFFFFFFFFFFFFFFFFFFFF00F000000000000000000000000000000FFFFFFFFFFFFFFFFFFFFFFFFFFFFFF00F0F00000000000000000000000000FF0F0FFFFFFFFF
310
FFFFFFFFFFFFFFFFFFF00F0FFFFFFFFFFFFFFFFFFFFFFFFFF0F00F0FFFFFFFFFFFFFFFFFFFFFFFFFF0F00F0FFFFFFFFFFFFFFFFFFFFFFFFFF0F00F0FFFFFFFFFFFFF0FFFFFFFFFFFF0F00F0FFFFFFFFFFF0000FFFFFFFFFFF0F00F0FFFFFFFFFFFF00FFFFFFFFFFFF0F00F0FFFFFFFFFFFFFFFFFFFFFFFFFF0F00F0FFFFFFF
310
FFFFFFFFFFFFFFFFFFF0F00F0FFFFFFFFFFFFFFFFFFFFFFFFFF0F00F0FFFFFFFFFFFFFFFFFFFFFFFFFF0F00FFFFFFFFFFFFFFFFFFFFFFFFFFFF0F00F00000000000000000000000000F0F00FFFFFFFFFFFFFFFFFFFFFFFFFFFFFF0000000000000000000000000000000000FFFFFFFFFFFFFFFFFFFFFFFFFFFFFF0FFFFFFFF
310
FFFFFFFFFFFFFFFFFFFFFFF00FFFFFFFFFFFFFFFFFFFFFFFFFFFFFF0F0000000000000000000000000000F0FFFFFFFFFFFFFFFFFFFFFFFFFFFFFFFFFFFFFFFFFFFFFFFFFFFFFFFFFFFFFFFFFFFFFFFFFFFFFFFFFFFFFFFFFFFFFFFFFFFFFFFFFFFFFFFFFFFFFFFFFFFFFFFFF
102
{BLKREFS
331
624
102
}
 70
     1
280
     1
281
     0
1001
ACAD
1000
DesignCenter Data
1002
{
1070
     1
1070
     1
1002
}
  0
BLOCK_RECORD
  5
625
330
1
100
AcDbSymbolTableRecord
100
AcDbBlockTableRecord
  2
Base Cabinet 1 Door - 24 in front
340
0
310
280000002000000020000000010004000000000000020000000000000000000000000000000000000000000000008000008000000080800080000000800080008080000080808000C0C0C0000000FF0000FF000000FFFF00FF000000FF00FF00FFFF0000FFFFFF00FFFFF00000000000000000000000FFFFFFFFF0FFFFFFFF
310
FFFFFFFFFFFFF0FFFFFFFFF0FFFFFFFFFFFFFFFFFFFFF0FFFFFFFFF0FFFFFFFFFFFFFFFFFFFFF0FFFFFFFFF00000000000000000000000FFFFFFFFF00000000000000000000000FFFFFFFFF00FFFFFFFFFFFFFFFFFFF00FFFFFFFFF00FFFFFFFFFFFFFFFFFFF00FFFFFFFFF00FFFFFFFFFFFFFFFFFFF00FFFFFFFFF00FFFFF
310
FFFFFFFFFFFFFF00FFFFFFFFF00FFFFFFFFFFFFFFFFFFF00FFFFFFFFF00FFFFFFFFFFFFFFFFFFF00FFFFFFFFF00FFFFFFFFFFFFFFFFFFF00FFFFFFFFF00FFFFFFFFFFFFFFFFFFF00FFFFFFFFF00FFFFFFFFFFFFFFFFFFF00FFFFFFFFF00FFFFFFFFFFFFFFFFFFF00FFFFFFFFF00FFFFFFFFFFFFFFFFFFF00FFFFFFFFF00FFF
310
FFFFFFFFFFFFFFFF00FFFFFFFFF00FFFFFFFFFFFFFFFFFFF00FFFFFFFFF00FFFFFFFFFFFFFFFFFFF00FFFFFFFFF00FFFFFFFFFFFFFFFFFFF00FFFFFFFFF00FFFFFFFFFFFFFFFFFFF00FFFFFFFFF00FFFFFFFFFFFFFFFFFFF00FFFFFFFFF00FFFFFFFFFFFFFFFFFFF00FFFFFFFFF00FFFFFFFFFFFFFFFFFFF00FFFFFFFFF00F
310
FFFFFFFFFFFFFFFFFF00FFFFFFFFF0F000000000000000000000FFFFFFFFF000000000000000000000F0FFFFFFFFF00FFFFFFFFFFFFFFFFFFF00FFFFFFFFF00FFFFFFFFFFFFFFFFFFF00FFFFFFFFF00000000000000000000000FFFFFFFFF00000000000000000000000FFFF
102
{BLKREFS
331
63A
102
}
 70
     1
280
     1
281
     0
1001
ACAD
1000
DesignCenter Data
1002
{
1070
     1
1070
     1
1002
}
  0
BLOCK_RECORD
  5
63B
330
1
100
AcDbSymbolTableRecord
100
AcDbBlockTableRecord
  2
Wall Cabinet - 18 x 12 in side
340
0
310
280000002000000020000000010004000000000000020000000000000000000000000000000000000000000000008000008000000080800080000000800080008080000080808000C0C0C0000000FF0000FF000000FFFF00FF000000FF00FF00FFFF0000FFFFFF00FFFFFF000000000000000000000FFFFFFFFFFF0FFFFFFF
310
FFFFFFFFFFFF0FFFFFFFFFFF0FFFFFFFFFFFFFFFFFFF0FFFFFFFFF000FFFFFFFFFFFFFFFFFFF0FFFFFFFFF000FFFFFFFFFFFFFFFFFFF0FFFFFFFFF000FFFFFFFFFFFFFFFFFFF0FFFFFFFFF000FFFFFFFFFFFFFFFFFFF0FFFFFFFFF000FFFFFFFFFFFFFFFFFFF0FFFFFFFFF000FFFFFFFFFFFFFFFFFFF0FFFFFFFFF000FFFFF
310
FFFFFFFFFFFFFF0FFFFFFFFF000FFFFFFFFFFFFFFFFFFF0FFFFFFFFF000FFFFFFFFFFFFFFFFFFF0FFFFFFFFF000FFFFFFFFFFFFFFFFFFF0FFFFFFFFF000FFFFFFFFFFFFFFFFFFF0FFFFFFFFF000FFFFFFFFFFFFFFFFFFF0FFFFFFFFF000FFFFFFFFFFFFFFFFFFF0FFFFFFFFF000FFFFFFFFFFFFFFFFFFF0FFFFFFFFF000FFF
310
FFFFFFFFFFFFFFFF0FFFFFFFFF000FFFFFFFFFFFFFFFFFFF0FFFFFFFFF000FFFFFFFFFFFFFFFFFFF0FFFFFFFFF000FFFFFFFFFFFFFFFFFFF0FFFFFFFFF000FFFFFFFFFFFFFFFFFFF0FFFFFFFFF000FFFFFFFFFFFFFFFFFFF0FFFFFFFFF000FFFFFFFFFFFFFFFFFFF0FFFFFFFFF000FFFFFFFFFFFFFFFFFFF0FFFFFFFFF000F
310
FFFFFFFFFFFFFFFFFF0FFFFFFFFF000FFFFFFFFFFFFFFFFFFF0FFFFFFFFF000FFFFFFFFFFFFFFFFFFF0FFFFFFFFF000FFFFFFFFFFFFFFFFFFF0FFFFFFFFFFF0FFFFFFFFFFFFFFFFFFF0FFFFFFFFFFF0FFFFFFFFFFFFFFFFFFF0FFFFFFFFFFF000000000000000000000FFFFF
102
{BLKREFS
331
645
102
}
 70
     1
280
     1
281
     0
1001
ACAD
1000
DesignCenter Data
1002
{
1070
     1
1070
     1
1002
}
  0
BLOCK_RECORD
  5
FC9
330
1
100
AcDbSymbolTableRecord
100
AcDbBlockTableRecord
  2
*D49
340
0
 70
     0
280
     1
281
     0
  0
BLOCK_RECORD
  5
FD7
330
1
100
AcDbSymbolTableRecord
100
AcDbBlockTableRecord
  2
*D50
340
0
 70
     0
280
     1
281
     0
  0
BLOCK_RECORD
  5
FE6
330
1
100
AcDbSymbolTableRecord
100
AcDbBlockTableRecord
  2
*D51
340
0
 70
     0
280
     1
281
     0
  0
BLOCK_RECORD
  5
FF5
330
1
100
AcDbSymbolTableRecord
100
AcDbBlockTableRecord
  2
*D52
340
0
 70
     0
280
     1
281
     0
  0
BLOCK_RECORD
  5
1004
330
1
100
AcDbSymbolTableRecord
100
AcDbBlockTableRecord
  2
*D53
340
0
 70
     0
280
     1
281
     0
  0
BLOCK_RECORD
  5
1021
330
1
100
AcDbSymbolTableRecord
100
AcDbBlockTableRecord
  2
*D55
340
0
 70
     0
280
     1
281
     0
  0
BLOCK_RECORD
  5
102F
330
1
100
AcDbSymbolTableRecord
100
AcDbBlockTableRecord
  2
*D56
340
0
 70
     0
280
     1
281
     0
  0
BLOCK_RECORD
  5
1045
330
1
100
AcDbSymbolTableRecord
100
AcDbBlockTableRecord
  2
*D57
340
0
 70
     0
280
     1
281
     0
  0
BLOCK_RECORD
  5
1053
330
1
100
AcDbSymbolTableRecord
100
AcDbBlockTableRecord
  2
*D58
340
0
 70
     0
280
     1
281
     0
  0
BLOCK_RECORD
  5
10DC
330
1
100
AcDbSymbolTableRecord
100
AcDbBlockTableRecord
  2
*D60
340
0
 70
     0
280
     1
281
     0
  0
BLOCK_RECORD
  5
10EA
330
1
100
AcDbSymbolTableRecord
100
AcDbBlockTableRecord
  2
*D61
340
0
 70
     0
280
     1
281
     0
  0
BLOCK_RECORD
  5
10F8
330
1
100
AcDbSymbolTableRecord
100
AcDbBlockTableRecord
  2
*D62
340
0
 70
     0
280
     1
281
     0
  0
BLOCK_RECORD
  5
1107
330
1
100
AcDbSymbolTableRecord
100
AcDbBlockTableRecord
  2
*D63
340
0
 70
     0
280
     1
281
     0
  0
BLOCK_RECORD
  5
113F
330
1
100
AcDbSymbolTableRecord
100
AcDbBlockTableRecord
  2
*D67
340
0
 70
     0
280
     1
281
     0
  0
BLOCK_RECORD
  5
114D
330
1
100
AcDbSymbolTableRecord
100
AcDbBlockTableRecord
  2
*D68
340
0
 70
     0
280
     1
281
     0
  0
BLOCK_RECORD
  5
115D
330
1
100
AcDbSymbolTableRecord
100
AcDbBlockTableRecord
  2
*D69
340
0
 70
     0
280
     1
281
     0
  0
BLOCK_RECORD
  5
116B
330
1
100
AcDbSymbolTableRecord
100
AcDbBlockTableRecord
  2
*D70
340
0
 70
     0
280
     1
281
     0
  0
BLOCK_RECORD
  5
1179
330
1
100
AcDbSymbolTableRecord
100
AcDbBlockTableRecord
  2
*D71
340
0
 70
     0
280
     1
281
     0
  0
BLOCK_RECORD
  5
1187
330
1
100
AcDbSymbolTableRecord
100
AcDbBlockTableRecord
  2
*D72
340
0
 70
     0
280
     1
281
     0
  0
BLOCK_RECORD
  5
1195
330
1
100
AcDbSymbolTableRecord
100
AcDbBlockTableRecord
  2
*D73
340
0
 70
     0
280
     1
281
     0
  0
BLOCK_RECORD
  5
11A3
330
1
100
AcDbSymbolTableRecord
100
AcDbBlockTableRecord
  2
*D74
340
0
 70
     0
280
     1
281
     0
  0
BLOCK_RECORD
  5
11B1
330
1
100
AcDbSymbolTableRecord
100
AcDbBlockTableRecord
  2
*D75
340
0
 70
     0
280
     1
281
     0
  0
BLOCK_RECORD
  5
11BF
330
1
100
AcDbSymbolTableRecord
100
AcDbBlockTableRecord
  2
*D76
340
0
 70
     0
280
     1
281
     0
  0
BLOCK_RECORD
  5
129A
330
1
100
AcDbSymbolTableRecord
100
AcDbBlockTableRecord
  2
*D80
340
0
 70
     0
280
     1
281
     0
  0
BLOCK_RECORD
  5
12D0
330
1
100
AcDbSymbolTableRecord
100
AcDbBlockTableRecord
  2
*D81
340
0
 70
     0
280
     1
281
     0
  0
BLOCK_RECORD
  5
12DE
330
1
100
AcDbSymbolTableRecord
100
AcDbBlockTableRecord
  2
*D82
340
0
 70
     0
280
     1
281
     0
  0
BLOCK_RECORD
  5
12EC
330
1
100
AcDbSymbolTableRecord
100
AcDbBlockTableRecord
  2
*D83
340
0
 70
     0
280
     1
281
     0
  0
BLOCK_RECORD
  5
12FA
330
1
100
AcDbSymbolTableRecord
100
AcDbBlockTableRecord
  2
*D84
340
0
 70
     0
280
     1
281
     0
  0
BLOCK_RECORD
  5
1308
330
1
100
AcDbSymbolTableRecord
100
AcDbBlockTableRecord
  2
*D85
340
0
 70
     0
280
     1
281
     0
  0
BLOCK_RECORD
  5
1316
330
1
100
AcDbSymbolTableRecord
100
AcDbBlockTableRecord
  2
*D86
340
0
 70
     0
280
     1
281
     0
  0
BLOCK_RECORD
  5
1324
330
1
100
AcDbSymbolTableRecord
100
AcDbBlockTableRecord
  2
*D87
340
0
 70
     0
280
     1
281
     0
  0
BLOCK_RECORD
  5
1332
330
1
100
AcDbSymbolTableRecord
100
AcDbBlockTableRecord
  2
*D88
340
0
 70
     0
280
     1
281
     0
  0
BLOCK_RECORD
  5
1340
330
1
100
AcDbSymbolTableRecord
100
AcDbBlockTableRecord
  2
*D89
340
0
 70
     0
280
     1
281
     0
  0
BLOCK_RECORD
  5
136A
330
1
100
AcDbSymbolTableRecord
100
AcDbBlockTableRecord
  2
*D92
340
0
 70
     0
280
     1
281
     0
  0
BLOCK_RECORD
  5
1377
330
1
100
AcDbSymbolTableRecord
100
AcDbBlockTableRecord
  2
*D93
340
0
 70
     0
280
     1
281
     0
  0
BLOCK_RECORD
  5
1425
330
1
100
AcDbSymbolTableRecord
100
AcDbBlockTableRecord
  2
*D94
340
0
 70
     0
280
     1
281
     0
  0
BLOCK_RECORD
  5
1432
330
1
100
AcDbSymbolTableRecord
100
AcDbBlockTableRecord
  2
*D95
340
0
 70
     0
280
     1
281
     0
  0
BLOCK_RECORD
  5
143E
330
1
100
AcDbSymbolTableRecord
100
AcDbBlockTableRecord
  2
*D96
340
0
 70
     0
280
     1
281
     0
  0
BLOCK_RECORD
  5
144B
330
1
100
AcDbSymbolTableRecord
100
AcDbBlockTableRecord
  2
*D97
340
0
 70
     0
280
     1
281
     0
  0
BLOCK_RECORD
  5
1458
330
1
100
AcDbSymbolTableRecord
100
AcDbBlockTableRecord
  2
*D98
340
0
 70
     0
280
     1
281
     0
  0
BLOCK_RECORD
  5
1465
330
1
100
AcDbSymbolTableRecord
100
AcDbBlockTableRecord
  2
*D99
340
0
 70
     0
280
     1
281
     0
  0
BLOCK_RECORD
  5
1472
330
1
100
AcDbSymbolTableRecord
100
AcDbBlockTableRecord
  2
*D100
340
0
 70
     0
280
     1
281
     0
  0
BLOCK_RECORD
  5
147D
330
1
100
AcDbSymbolTableRecord
100
AcDbBlockTableRecord
  2
*D101
340
0
 70
     0
280
     1
281
     0
  0
BLOCK_RECORD
  5
148A
330
1
100
AcDbSymbolTableRecord
100
AcDbBlockTableRecord
  2
*D102
340
0
 70
     0
280
     1
281
     0
  0
BLOCK_RECORD
  5
1497
330
1
100
AcDbSymbolTableRecord
100
AcDbBlockTableRecord
  2
*D103
340
0
 70
     0
280
     1
281
     0
  0
BLOCK_RECORD
  5
14A4
330
1
100
AcDbSymbolTableRecord
100
AcDbBlockTableRecord
  2
*D104
340
0
 70
     0
280
     1
281
     0
  0
BLOCK_RECORD
  5
14AF
330
1
100
AcDbSymbolTableRecord
100
AcDbBlockTableRecord
  2
*D105
340
0
 70
     0
280
     1
281
     0
  0
BLOCK_RECORD
  5
14BC
330
1
100
AcDbSymbolTableRecord
100
AcDbBlockTableRecord
  2
*D106
340
0
 70
     0
280
     1
281
     0
  0
BLOCK_RECORD
  5
14C7
330
1
100
AcDbSymbolTableRecord
100
AcDbBlockTableRecord
  2
*D107
340
0
 70
     0
280
     1
281
     0
  0
BLOCK_RECORD
  5
14D4
330
1
100
AcDbSymbolTableRecord
100
AcDbBlockTableRecord
  2
*D108
340
0
 70
     0
280
     1
281
     0
  0
BLOCK_RECORD
  5
14E1
330
1
100
AcDbSymbolTableRecord
100
AcDbBlockTableRecord
  2
*D109
340
0
 70
     0
280
     1
281
     0
  0
BLOCK_RECORD
  5
14EE
330
1
100
AcDbSymbolTableRecord
100
AcDbBlockTableRecord
  2
*D110
340
0
 70
     0
280
     1
281
     0
  0
BLOCK_RECORD
  5
14FA
330
1
100
AcDbSymbolTableRecord
100
AcDbBlockTableRecord
  2
*D111
340
0
 70
     0
280
     1
281
     0
  0
BLOCK_RECORD
  5
1506
330
1
100
AcDbSymbolTableRecord
100
AcDbBlockTableRecord
  2
*D112
340
0
 70
     0
280
     1
281
     0
  0
BLOCK_RECORD
  5
1513
330
1
100
AcDbSymbolTableRecord
100
AcDbBlockTableRecord
  2
*D113
340
0
 70
     0
280
     1
281
     0
  0
BLOCK_RECORD
  5
1520
330
1
100
AcDbSymbolTableRecord
100
AcDbBlockTableRecord
  2
*D114
340
0
 70
     0
280
     1
281
     0
  0
BLOCK_RECORD
  5
152D
330
1
100
AcDbSymbolTableRecord
100
AcDbBlockTableRecord
  2
*D115
340
0
 70
     0
280
     1
281
     0
  0
BLOCK_RECORD
  5
153A
330
1
100
AcDbSymbolTableRecord
100
AcDbBlockTableRecord
  2
*D116
340
0
 70
     0
280
     1
281
     0
  0
BLOCK_RECORD
  5
1547
330
1
100
AcDbSymbolTableRecord
100
AcDbBlockTableRecord
  2
*D117
340
0
 70
     0
280
     1
281
     0
  0
BLOCK_RECORD
  5
1554
330
1
100
AcDbSymbolTableRecord
100
AcDbBlockTableRecord
  2
*D118
340
0
 70
     0
280
     1
281
     0
  0
BLOCK_RECORD
  5
1561
330
1
100
AcDbSymbolTableRecord
100
AcDbBlockTableRecord
  2
*D119
340
0
 70
     0
280
     1
281
     0
  0
BLOCK_RECORD
  5
156C
330
1
100
AcDbSymbolTableRecord
100
AcDbBlockTableRecord
  2
*D120
340
0
 70
     0
280
     1
281
     0
  0
BLOCK_RECORD
  5
1579
330
1
100
AcDbSymbolTableRecord
100
AcDbBlockTableRecord
  2
*D121
340
0
 70
     0
280
     1
281
     0
  0
BLOCK_RECORD
  5
1584
330
1
100
AcDbSymbolTableRecord
100
AcDbBlockTableRecord
  2
*D122
340
0
 70
     0
280
     1
281
     0
  0
BLOCK_RECORD
  5
158F
330
1
100
AcDbSymbolTableRecord
100
AcDbBlockTableRecord
  2
*D123
340
0
 70
     0
280
     1
281
     0
  0
BLOCK_RECORD
  5
159A
330
1
100
AcDbSymbolTableRecord
100
AcDbBlockTableRecord
  2
*D124
340
0
 70
     0
280
     1
281
     0
  0
BLOCK_RECORD
  5
16EF
330
1
100
AcDbSymbolTableRecord
100
AcDbBlockTableRecord
  2
*D126
340
0
 70
     0
280
     1
281
     0
  0
ENDTAB
  0
ENDSEC
  0
SECTION
  2
BLOCKS
  0
BLOCK
  5
20
330
1F
100
AcDbEntity
  8
0
100
AcDbBlockBegin
  2
*Model_Space
 70
     0
 10
0.0
 20
0.0
 30
0.0
  3
*Model_Space
  1

  0
ENDBLK
  5
21
330
1F
100
AcDbEntity
  8
0
100
AcDbBlockEnd
  0
BLOCK
  5
1C
330
1B
100
AcDbEntity
 67
     1
  8
0
100
AcDbBlockBegin
  2
*Paper_Space
 70
     0
 10
0.0
 20
0.0
 30
0.0
  3
*Paper_Space
  1

  0
ENDBLK
  5
1D
330
1B
100
AcDbEntity
 67
     1
  8
0
100
AcDbBlockEnd
  0
BLOCK
  5
24
330
23
100
AcDbEntity
  8
0
100
AcDbBlockBegin
  2
*Paper_Space0
 70
     0
 10
0.0
 20
0.0
 30
0.0
  3
*Paper_Space0
  1

  0
ENDBLK
  5
25
330
23
100
AcDbEntity
  8
0
100
AcDbBlockEnd
  0
BLOCK
  5
A1
330
9F
100
AcDbEntity
  8
0
100
AcDbBlockBegin
  2
_Oblique
 70
     0
 10
0.0
 20
0.0
 30
0.0
  3
_Oblique
  1

  0
LINE
  5
A0
330
9F
100
AcDbEntity
  8
0
 62
     0
370
    -2
100
AcDbLine
 10
-0.5
 20
-0.5
 30
0.0
 11
0.5
 21
0.5
 31
0.0
  0
ENDBLK
  5
A2
330
9F
100
AcDbEntity
  8
0
100
AcDbBlockEnd
  0
BLOCK
  5
C1
330
B6
100
AcDbEntity
  8
0
100
AcDbBlockBegin
  2
*D2
 70
     1
 10
0.0
 20
0.0
 30
0.0
  3
*D2
  1

  0
LINE
  5
B7
330
B6
100
AcDbEntity
  8
0
 62
     0
370
    -2
100
AcDbLine
 10
169.1791352886303
 20
918.0
 30
0.0
 11
169.1791352886303
 21
957.1001025221069
 31
0.0
  0
LINE
  5
B8
330
B6
100
AcDbEntity
  8
0
 62
     0
370
    -2
100
AcDbLine
 10
505.1791352886303
 20
918.0
 30
0.0
 11
505.1791352886303
 21
957.1001025221069
 31
0.0
  0
LINE
  5
B9
330
B6
100
AcDbEntity
  8
0
 62
     0
370
    -2
100
AcDbLine
 10
169.1791352886303
 20
951.1001025221069
 30
0.0
 11
327.2049852120606
 21
951.1001025221069
 31
0.0
  0
LINE
  5
BA
330
B6
100
AcDbEntity
  8
0
 62
     0
370
    -2
100
AcDbLine
 10
505.1791352886303
 20
951.1001025221069
 30
0.0
 11
347.1532853652
 21
951.1001025221069
 31
0.0
  0
INSERT
  5
BB
330
B6
100
AcDbEntity
  8
0
 62
     0
370
    -2
100
AcDbBlockReference
  2
_Oblique
 10
169.1791352886303
 20
951.1001025221069
 30
0.0
 41
5.279999999999999
 42
5.279999999999999
 43
5.279999999999999
 50
180.0
  0
INSERT
  5
BC
330
B6
100
AcDbEntity
  8
0
 62
     0
370
    -2
100
AcDbBlockReference
  2
_Oblique
 10
505.1791352886303
 20
951.1001025221069
 30
0.0
 41
5.279999999999999
 42
5.279999999999999
 43
5.279999999999999
  0
MTEXT
  5
BD
330
B6
100
AcDbEntity
  8
0
 62
     0
100
AcDbMText
 10
337.1791352886303
 20
951.1001025221069
 30
0.0
 40
5.279999999999999
 41
0.0
 46
0.0
 71
     5
 72
     1
  1
\A1;28'
 73
     1
 44
1.0
  0
POINT
  5
BE
330
B6
100
AcDbEntity
  8
Defpoints
 62
     0
100
AcDbPoint
 10
169.1791352886303
 20
912.0
 30
0.0
  0
POINT
  5
BF
330
B6
100
AcDbEntity
  8
Defpoints
 62
     0
100
AcDbPoint
 10
505.1791352886303
 20
912.0
 30
0.0
  0
POINT
  5
C0
330
B6
100
AcDbEntity
  8
Defpoints
 62
     0
100
AcDbPoint
 10
505.1791352886303
 20
951.1001025221069
 30
0.0
  0
ENDBLK
  5
C2
330
B6
100
AcDbEntity
  8
0
100
AcDbBlockEnd
  0
BLOCK
  5
CF
330
C4
100
AcDbEntity
  8
0
100
AcDbBlockBegin
  2
*D3
 70
     1
 10
0.0
 20
0.0
 30
0.0
  3
*D3
  1

  0
LINE
  5
C5
330
C4
100
AcDbEntity
  8
0
 62
     0
370
    -2
100
AcDbLine
 10
169.1791352886303
 20
918.0
 30
0.0
 11
169.1791352886303
 21
938.9377789595903
 31
0.0
  0
LINE
  5
C6
330
C4
100
AcDbEntity
  8
0
 62
     0
370
    -2
100
AcDbLine
 10
205.1791352886303
 20
918.0
 30
0.0
 11
205.1791352886303
 21
938.9377789595903
 31
0.0
  0
LINE
  5
C7
330
C4
100
AcDbEntity
  8
0
 62
     0
370
    -2
100
AcDbLine
 10
169.1791352886303
 20
932.9377789595903
 30
0.0
 11
178.9393803116012
 21
932.9377789595903
 31
0.0
  0
LINE
  5
C8
330
C4
100
AcDbEntity
  8
0
 62
     0
370
    -2
100
AcDbLine
 10
205.1791352886303
 20
932.9377789595903
 30
0.0
 11
195.4188902656594
 21
932.9377789595903
 31
0.0
  0
INSERT
  5
C9
330
C4
100
AcDbEntity
  8
0
 62
     0
370
    -2
100
AcDbBlockReference
  2
_Oblique
 10
169.1791352886303
 20
932.9377789595903
 30
0.0
 41
5.279999999999999
 42
5.279999999999999
 43
5.279999999999999
 50
180.0
  0
INSERT
  5
CA
330
C4
100
AcDbEntity
  8
0
 62
     0
370
    -2
100
AcDbBlockReference
  2
_Oblique
 10
205.1791352886303
 20
932.9377789595903
 30
0.0
 41
5.279999999999999
 42
5.279999999999999
 43
5.279999999999999
  0
MTEXT
  5
CB
330
C4
100
AcDbEntity
  8
0
 62
     0
100
AcDbMText
 10
187.1791352886303
 20
932.9377789595903
 30
0.0
 40
5.279999999999999
 41
0.0
 46
0.0
 71
     5
 72
     1
  1
\A1;3'
 73
     1
 44
1.0
  0
POINT
  5
CC
330
C4
100
AcDbEntity
  8
Defpoints
 62
     0
100
AcDbPoint
 10
169.1791352886303
 20
912.0
 30
0.0
  0
POINT
  5
CD
330
C4
100
AcDbEntity
  8
Defpoints
 62
     0
100
AcDbPoint
 10
205.1791352886303
 20
912.0
 30
0.0
  0
POINT
  5
CE
330
C4
100
AcDbEntity
  8
Defpoints
 62
     0
100
AcDbPoint
 10
205.1791352886303
 20
932.9377789595903
 30
0.0
  0
ENDBLK
  5
D0
330
C4
100
AcDbEntity
  8
0
100
AcDbBlockEnd
  0
BLOCK
  5
DD
330
D2
100
AcDbEntity
  8
0
100
AcDbBlockBegin
  2
*D4
 70
     1
 10
0.0
 20
0.0
 30
0.0
  3
*D4
  1

  0
LINE
  5
D3
330
D2
100
AcDbEntity
  8
0
 62
     0
370
    -2
100
AcDbLine
 10
205.1791352886303
 20
918.0
 30
0.0
 11
205.1791352886303
 21
938.9377789595903
 31
0.0
  0
LINE
  5
D4
330
D2
100
AcDbEntity
  8
0
 62
     0
370
    -2
100
AcDbLine
 10
505.1791352886303
 20
918.0
 30
0.0
 11
505.1791352886303
 21
938.9377789595903
 31
0.0
  0
LINE
  5
D5
330
D2
100
AcDbEntity
  8
0
 62
     0
370
    -2
100
AcDbLine
 10
205.1791352886303
 20
932.9377789595903
 30
0.0
 11
345.2049852120606
 21
932.9377789595903
 31
0.0
  0
LINE
  5
D6
330
D2
100
AcDbEntity
  8
0
 62
     0
370
    -2
100
AcDbLine
 10
505.1791352886303
 20
932.9377789595903
 30
0.0
 11
365.1532853652
 21
932.9377789595903
 31
0.0
  0
INSERT
  5
D7
330
D2
100
AcDbEntity
  8
0
 62
     0
370
    -2
100
AcDbBlockReference
  2
_Oblique
 10
205.1791352886303
 20
932.9377789595903
 30
0.0
 41
5.279999999999999
 42
5.279999999999999
 43
5.279999999999999
 50
180.0
  0
INSERT
  5
D8
330
D2
100
AcDbEntity
  8
0
 62
     0
370
    -2
100
AcDbBlockReference
  2
_Oblique
 10
505.1791352886303
 20
932.9377789595903
 30
0.0
 41
5.279999999999999
 42
5.279999999999999
 43
5.279999999999999
  0
MTEXT
  5
D9
330
D2
100
AcDbEntity
  8
0
 62
     0
100
AcDbMText
 10
355.1791352886303
 20
932.9377789595903
 30
0.0
 40
5.279999999999999
 41
0.0
 46
0.0
 71
     5
 72
     1
  1
\A1;25'
 73
     1
 44
1.0
  0
POINT
  5
DA
330
D2
100
AcDbEntity
  8
Defpoints
 62
     0
100
AcDbPoint
 10
205.1791352886303
 20
912.0
 30
0.0
  0
POINT
  5
DB
330
D2
100
AcDbEntity
  8
Defpoints
 62
     0
100
AcDbPoint
 10
505.1791352886303
 20
912.0
 30
0.0
  0
POINT
  5
DC
330
D2
100
AcDbEntity
  8
Defpoints
 62
     0
100
AcDbPoint
 10
505.1791352886303
 20
932.9377789595903
 30
0.0
  0
ENDBLK
  5
DE
330
D2
100
AcDbEntity
  8
0
100
AcDbBlockEnd
  0
BLOCK
  5
568
330
55E
100
AcDbEntity
  8
0
100
AcDbBlockBegin
  2
Window - Wood Frame 36 x 36 in.
 70
     0
 10
0.0
 20
0.0
 30
0.0
  3
Window - Wood Frame 36 x 36 in.
  1
WINDOW_WOODEN_36X36
  4
DesignCenter House Designer examples
  0
LWPOLYLINE
  5
55F
330
55E
100
AcDbEntity
  8
0
100
AcDbPolyline
 90
        4
 70
     0
 43
0.0
 10
32.99999999999999
 20
16.5
 10
32.99999999999999
 20
2.5
 10
3.0
 20
2.5
 10
3.0
 20
16.5
  0
LINE
  5
560
330
55E
100
AcDbEntity
  8
0
100
AcDbLine
 10
3.0
 20
16.5
 30
0.0
 11
32.99999999999999
 21
16.5
 31
0.0
  0
LWPOLYLINE
  5
561
330
55E
100
AcDbEntity
  8
0
100
AcDbPolyline
 90
        4
 70
     0
 43
0.0
 10
33.99999999999999
 20
17.5
 10
33.99999999999999
 20
1.5
 10
2.0
 20
1.5
 10
2.0
 20
17.5
  0
LINE
  5
562
330
55E
100
AcDbEntity
  8
0
100
AcDbLine
 10
2.0
 20
17.5
 30
0.0
 11
33.99999999999999
 21
17.5
 31
0.0
  0
LWPOLYLINE
  5
563
330
55E
100
AcDbEntity
  8
0
100
AcDbPolyline
 90
        4
 70
     0
 43
0.0
 10
2.5
 20
19.5
 10
2.5
 20
33.5
 10
33.49999999999999
 20
33.5
 10
33.49999999999999
 20
19.5
  0
LINE
  5
564
330
55E
100
AcDbEntity
  8
0
100
AcDbLine
 10
2.5
 20
19.5
 30
0.0
 11
33.49999999999999
 21
19.5
 31
0.0
  0
LWPOLYLINE
  5
565
330
55E
100
AcDbEntity
  8
0
100
AcDbPolyline
 90
        4
 70
     0
 43
0.0
 10
1.5
 20
18.5
 10
1.5
 20
34.5
 10
34.49999999999999
 20
34.5
 10
34.49999999999999
 20
18.5
  0
LINE
  5
566
330
55E
100
AcDbEntity
  8
0
100
AcDbLine
 10
1.5
 20
18.5
 30
0.0
 11
34.49999999999999
 21
18.5
 31
0.0
  0
LWPOLYLINE
  5
567
330
55E
100
AcDbEntity
  8
0
100
AcDbPolyline
 90
        4
 70
     1
 43
0.0
 10
0.0
 20
0.0
 10
0.0
 20
36.0
 10
35.99999999999999
 20
36.0
 10
35.99999999999999
 20
0.0
  0
ENDBLK
  5
569
330
55E
100
AcDbEntity
  8
0
100
AcDbBlockEnd
  0
BLOCK
  5
596
330
57E
100
AcDbEntity
  8
0
100
AcDbBlockBegin
  2
Toilet - top
 70
     0
 10
0.0
 20
0.0
 30
0.0
  3
Toilet - top
  1
TOILET_TOP
  4
DesignCenter House Designer examples
  0
ARC
  5
57F
330
57E
100
AcDbEntity
  8
0
100
AcDbCircle
 10
0.0000209415214183
 20
-28.99996806116074
 30
0.0
 40
4.0
100
AcDbArc
 50
254.8605283244436
 51
285.1394707718433
  0
ARC
  5
580
330
57E
100
AcDbEntity
  8
0
100
AcDbCircle
 10
0.0000209660981727
 20
-27.87646475467881
 30
0.0
 40
4.0
100
AcDbArc
 50
245.7318247449371
 51
294.2681740488959
  0
LINE
  5
581
330
57E
100
AcDbEntity
  8
0
100
AcDbLine
 10
4.0
 20
-14.0
 30
0.0
 11
-4.0
 21
-14.0
 31
0.0
  0
LWPOLYLINE
  5
582
330
57E
100
AcDbEntity
  8
0
100
AcDbPolyline
 90
        4
 70
     1
 43
0.0
 10
10.5
 20
-8.0
 10
10.5
 20
0.0
 10
-10.5
 20
0.0
 10
-10.5
 20
-8.0
  0
LWPOLYLINE
  5
583
330
57E
100
AcDbEntity
  8
0
100
AcDbPolyline
 90
        2
 70
     0
 43
0.0
 10
-8.5
 20
-7.0
 10
8.5
 20
-7.0
  0
LWPOLYLINE
  5
584
330
57E
100
AcDbEntity
  8
0
100
AcDbPolyline
 90
        2
 70
     0
 43
0.0
 10
8.5
 20
-1.0
 10
-8.5
 20
-1.0
  0
LINE
  5
585
330
57E
100
AcDbEntity
  8
0
100
AcDbLine
 10
-4.0
 20
-8.0
 30
0.0
 11
-6.0
 21
-14.0
 31
0.0
  0
ARC
  5
586
330
57E
100
AcDbEntity
  8
0
100
AcDbCircle
 10
3.519562435188957
 20
-21.58049502388982
 30
0.0
 40
12.16902005083647
100
AcDbArc
 50
141.4691096810948
 51
247.9714346835576
  0
ARC
  5
587
330
57E
100
AcDbEntity
  8
0
100
AcDbCircle
 10
4.199957580658808
 20
-21.81740929088453
 30
0.0
 40
11.3291791325804
100
AcDbArc
 50
136.3677254423718
 51
238.946823937405
  0
LWPOLYLINE
  5
588
330
57E
100
AcDbEntity
  8
0
100
AcDbPolyline
 90
        2
 70
     0
 43
0.0
 10
-9.5
 20
-2.0
 10
-9.5
 20
-6.0
  0
LINE
  5
589
330
57E
100
AcDbEntity
  8
0
100
AcDbLine
 10
-7.0
 20
-9.5
 30
0.0
 11
-10.0
 21
-9.5
 31
0.0
  0
LINE
  5
58A
330
57E
100
AcDbEntity
  8
0
100
AcDbLine
 10
-10.0
 20
-8.5
 30
0.0
 11
-8.0
 21
-8.5
 31
0.0
  0
LINE
  5
58B
330
57E
100
AcDbEntity
  8
0
100
AcDbLine
 10
-10.0
 20
-9.5
 30
0.0
 11
-10.0
 21
-8.5
 31
0.0
  0
LINE
  5
58C
330
57E
100
AcDbEntity
  8
0
100
AcDbLine
 10
-8.0
 20
-8.5
 30
0.0
 11
-8.0
 21
-8.0
 31
0.0
  0
LINE
  5
58D
330
57E
100
AcDbEntity
  8
0
100
AcDbLine
 10
-7.0
 20
-8.0
 30
0.0
 11
-7.0
 21
-9.5
 31
0.0
  0
ARC
  5
58E
330
57E
100
AcDbEntity
  8
0
100
AcDbCircle
 10
-8.625
 20
-6.125
 30
0.0
 40
0.8838834999999999
100
AcDbArc
 50
171.869898
 51
278.1301
  0
ARC
  5
58F
330
57E
100
AcDbEntity
  8
0
100
AcDbCircle
 10
-8.625
 20
-1.875
 30
0.0
 40
0.8838834999999999
100
AcDbArc
 50
81.8699
 51
188.1301
  0
LINE
  5
590
330
57E
100
AcDbEntity
  8
0
100
AcDbLine
 10
4.0
 20
-8.0
 30
0.0
 11
6.0
 21
-14.0
 31
0.0
  0
ARC
  5
591
330
57E
100
AcDbEntity
  8
0
100
AcDbCircle
 10
-3.519499936778317
 20
-21.58047137067522
 30
0.0
 40
12.16903423757823
100
AcDbArc
 50
292.0284332733153
 51
38.53070636800452
  0
ARC
  5
592
330
57E
100
AcDbEntity
  8
0
100
AcDbCircle
 10
-4.199890672038477
 20
-21.81738596564129
 30
0.0
 40
11.32918622148567
100
AcDbArc
 50
301.0530065773863
 51
43.63209216694732
  0
LINE
  5
593
330
57E
100
AcDbEntity
  8
0
100
AcDbLine
 10
9.5
 20
-6.0
 30
0.0
 11
9.5
 21
-2.0
 31
0.0
  0
ARC
  5
594
330
57E
100
AcDbEntity
  8
0
100
AcDbCircle
 10
8.625
 20
-6.125
 30
0.0
 40
0.8838834999999999
100
AcDbArc
 50
261.8699
 51
8.130099999999993
  0
ARC
  5
595
330
57E
100
AcDbEntity
  8
0
100
AcDbCircle
 10
8.625
 20
-1.875
 30
0.0
 40
0.8838834999999999
100
AcDbArc
 50
351.8699
 51
98.13009999999998
  0
ENDBLK
  5
597
330
57E
100
AcDbEntity
  8
0
100
AcDbBlockEnd
  0
BLOCK
  5
5A6
330
59E
100
AcDbEntity
  8
0
100
AcDbBlockBegin
  2
Sink - Oval top
 70
     0
 10
0.0
 20
0.0
 30
0.0
  3
Sink - Oval top
  1
SINK_OVAL_TOP
  4
DesignCenter House Designer examples
  0
CIRCLE
  5
59F
330
59E
100
AcDbEntity
  8
0
100
AcDbCircle
 10
0.0
 20
0.0
 30
0.0
 40
1.0
  0
CIRCLE
  5
5A0
330
59E
100
AcDbEntity
  8
0
100
AcDbCircle
 10
0.0
 20
0.0
 30
0.0
 40
1.5
  0
LINE
  5
5A1
330
59E
100
AcDbEntity
  8
0
100
AcDbLine
 10
-1.0
 20
0.0
 30
0.0
 11
1.0
 21
0.0
 31
0.0
  0
LINE
  5
5A2
330
59E
100
AcDbEntity
  8
0
100
AcDbLine
 10
0.0
 20
1.0
 30
0.0
 11
0.0
 21
-1.0
 31
0.0
  0
LWPOLYLINE
  5
5A3
330
59E
100
AcDbEntity
  8
0
  6
Continuous
100
AcDbPolyline
 90
       16
 70
     1
 43
0.0
 10
-11.2862798685012
 20
0.1590597164737346
 42
0.1186217001864142
 10
-10.51590095791209
 20
-3.253161772358112
 42
0.1046781721811095
 10
-8.071803350560117
 20
-6.358618019863343
 42
0.0895620664691738
 10
-4.537699193222352
 20
-8.366971929609804
 42
0.0811846988912177
 10
-0.1289739026695997
 20
-9.15150355811437
 42
0.0811846988912275
 10
4.300109150126218
 20
-8.491524865184601
 42
0.0895620664691798
 10
7.889406708212618
 20
-6.583562428127607
 42
0.1046781721811044
 10
10.42004782883112
 20
-3.548216131892445
 42
0.1186217001864013
 10
11.2862798685012
 20
-0.1590597164736209
 42
0.1186217001863946
 10
10.51590095791221
 20
3.253161772357998
 42
0.1046781721811069
 10
8.071803350560117
 20
6.358618019863343
 42
0.0895620664691756
 10
4.537699193222124
 20
8.366971929609917
 42
0.081184698891216
 10
0.1289739026695997
 20
9.151503558114428
 42
0.0811846988912141
 10
-4.300109150125877
 20
8.491524865184829
 42
0.0895620664691747
 10
-7.889406708212618
 20
6.583562428127607
 42
0.1046781721811045
 10
-10.42004782883112
 20
3.548216131892445
 42
0.1186217001863946
  0
LWPOLYLINE
  5
5A4
330
59E
100
AcDbEntity
  8
0
  6
Continuous
100
AcDbPolyline
 90
       16
 70
     1
 43
0.0
 10
-12.2337188035408
 20
0.3941914712607968
 42
0.1176342565883263
 10
-11.46456229543958
 20
-3.361933235489118
 42
0.104469279667093
 10
-8.878748691070427
 20
-6.803541973650567
 42
0.0900157896014849
 10
-5.082757700676666
 20
-9.072309807490512
 42
0.0819199491592185
 10
-0.3227280122732736
 20
-10.01585280257211
 42
0.081919949159209
 10
4.488169920880978
 20
-9.380701564817912
 42
0.0900157896014801
 10
8.422342359155778
 20
-7.36101289847943
 42
0.1044692796670922
 10
11.22435122606942
 20
-4.093009071543406
 42
0.1176342565883338
 10
12.23371880354091
 20
-0.3941914712607968
 42
0.1176342565883057
 10
11.46456229543992
 20
3.361933235488777
 42
0.1044692796670849
 10
8.878748691070427
 20
6.803541973650567
 42
0.0900157896014883
 10
5.082757700676325
 20
9.072309807490683
 42
0.0819199491592058
 10
0.3227280122732736
 20
10.01585280257211
 42
0.0819199491592069
 10
-4.488169920880864
 20
9.380701564817969
 42
0.0900157896014802
 10
-8.422342359155778
 20
7.36101289847943
 42
0.1044692796670951
 10
-11.22435122606919
 20
4.093009071543634
 42
0.1176342565883402
  0
LWPOLYLINE
  5
5A5
330
59E
100
AcDbEntity
  8
0
  6
Continuous
100
AcDbPolyline
 90
       16
 70
     1
 43
0.0
 10
-7.420452389032903
 20
0.0829876781601797
 42
0.1182825673856775
 10
-6.907065465214487
 20
-2.167464938077501
 42
0.1046074595377274
 10
-5.294791470712084
 20
-4.209988192029414
 42
0.0897179636260996
 10
-2.966599981142508
 20
-5.52812215268807
 42
0.0814360825277113
 10
-0.0675135187855176
 20
-6.036810076758798
 42
0.0814360825277217
 10
2.84222437824053
 20
-5.593085960977874
 42
0.0897179636261315
 10
5.199312936802016
 20
-4.327350491993343
 42
0.1046074595376878
 10
6.85686365682659
 20
-2.321395784920355
 42
0.1182825673856714
 10
7.420452389033017
 20
-0.0829876781601797
 42
0.1182825673856961
 10
6.907065465214487
 20
2.167464938077615
 42
0.1046074595377135
 10
5.294791470712084
 20
4.209988192029414
 42
0.0897179636261265
 10
2.966599981142622
 20
5.528122152687843
 42
0.0814360825277425
 10
0.0675135187855176
 20
6.036810076758798
 42
0.0814360825277225
 10
-2.842224378240644
 20
5.593085960977874
 42
0.0897179636261212
 10
-5.199312936802016
 20
4.327350491993343
 42
0.1046074595377049
 10
-6.856863656826476
 20
2.321395784920355
 42
0.1182825673856712
  0
ENDBLK
  5
5A7
330
59E
100
AcDbEntity
  8
0
100
AcDbBlockEnd
  0
BLOCK
  5
5CC
330
5AE
100
AcDbEntity
  8
0
100
AcDbBlockBegin
  2
Range-Oven - 30 in top
 70
     0
 10
0.0
 20
0.0
 30
0.0
  3
Range-Oven - 30 in top
  1
RANGE_30_INCH_TOP
  4
DesignCenter Kitchen example
  0
CIRCLE
  5
5AF
330
5AE
100
AcDbEntity
  8
0
100
AcDbCircle
 10
24.0
 20
-9.0000002
 30
0.0
 40
1.0
  0
LINE
  5
5B0
330
5AE
100
AcDbEntity
  8
0
100
AcDbLine
 10
12.0
 20
-6.0
 30
0.0
 11
18.0
 21
-6.0
 31
0.0
  0
CIRCLE
  5
5B1
330
5AE
100
AcDbEntity
  8
0
100
AcDbCircle
 10
6.000000000000004
 20
-9.0000002
 30
0.0
 40
1.0
  0
LINE
  5
5B2
330
5AE
100
AcDbEntity
  8
0
100
AcDbLine
 10
0.0
 20
-3.0
 30
0.0
 11
30.0
 21
-3.0
 31
0.0
  0
CIRCLE
  5
5B3
330
5AE
100
AcDbEntity
  8
0
100
AcDbCircle
 10
24.0
 20
-18.0
 30
0.0
 40
4.0
  0
CIRCLE
  5
5B4
330
5AE
100
AcDbEntity
  8
0
100
AcDbCircle
 10
24.0
 20
-18.0
 30
0.0
 40
3.0
  0
CIRCLE
  5
5B5
330
5AE
100
AcDbEntity
  8
0
100
AcDbCircle
 10
24.0
 20
-18.0
 30
0.0
 40
2.0
  0
CIRCLE
  5
5B6
330
5AE
100
AcDbEntity
  8
0
100
AcDbCircle
 10
24.0
 20
-18.0
 30
0.0
 40
1.0
  0
LINE
  5
5B7
330
5AE
100
AcDbEntity
  8
0
100
AcDbLine
 10
22.0
 20
-24.999996
 30
0.0
 11
22.0
 21
-23.999996
 31
0.0
  0
LINE
  5
5B8
330
5AE
100
AcDbEntity
  8
0
100
AcDbLine
 10
24.0
 20
-23.999996
 30
0.0
 11
24.0
 21
-24.999996
 31
0.0
  0
LINE
  5
5B9
330
5AE
100
AcDbEntity
  8
0
100
AcDbLine
 10
18.0
 20
-19.999996
 30
0.0
 11
12.0
 21
-19.999996
 31
0.0
  0
LINE
  5
5BA
330
5AE
100
AcDbEntity
  8
0
100
AcDbLine
 10
8.000000000000004
 20
-24.999996
 30
0.0
 11
8.000000000000004
 21
-23.999996
 31
0.0
  0
CIRCLE
  5
5BB
330
5AE
100
AcDbEntity
  8
0
100
AcDbCircle
 10
6.000000000000004
 20
-18.0
 30
0.0
 40
1.0
  0
LINE
  5
5BC
330
5AE
100
AcDbEntity
  8
0
100
AcDbLine
 10
6.000000000000004
 20
-23.999996
 30
0.0
 11
6.000000000000004
 21
-24.999996
 31
0.0
  0
LWPOLYLINE
  5
5BD
330
5AE
100
AcDbEntity
  8
0
100
AcDbPolyline
 90
        4
 70
     1
 43
0.0
 10
2.000000000000004
 20
-25.999996
 10
2.000000000000004
 20
-24.999996
 10
28.0
 20
-24.999996
 10
28.0
 20
-25.999996
  0
CIRCLE
  5
5BE
330
5AE
100
AcDbEntity
  8
0
100
AcDbCircle
 10
6.000000000000004
 20
-18.0
 30
0.0
 40
3.0
  0
CIRCLE
  5
5BF
330
5AE
100
AcDbEntity
  8
0
100
AcDbCircle
 10
6.000000000000004
 20
-18.0
 30
0.0
 40
2.0
  0
LINE
  5
5C0
330
5AE
100
AcDbEntity
  8
0
100
AcDbLine
 10
17.0
 20
-19.999996
 30
0.0
 11
17.0
 21
-6.0
 31
0.0
  0
LINE
  5
5C1
330
5AE
100
AcDbEntity
  8
0
100
AcDbLine
 10
16.0
 20
-6.0
 30
0.0
 11
16.0
 21
-19.999996
 31
0.0
  0
LINE
  5
5C2
330
5AE
100
AcDbEntity
  8
0
100
AcDbLine
 10
15.0
 20
-19.999996
 30
0.0
 11
15.0
 21
-6.0
 31
0.0
  0
LINE
  5
5C3
330
5AE
100
AcDbEntity
  8
0
100
AcDbLine
 10
14.0
 20
-6.0
 30
0.0
 11
14.0
 21
-19.999996
 31
0.0
  0
LINE
  5
5C4
330
5AE
100
AcDbEntity
  8
0
100
AcDbLine
 10
13.0
 20
-19.999996
 30
0.0
 11
13.0
 21
-6.0
 31
0.0
  0
LWPOLYLINE
  5
5C5
330
5AE
100
AcDbEntity
  8
0
100
AcDbPolyline
 90
        4
 70
     1
 43
0.0
 10
12.0
 20
-20.999996
 10
12.0
 20
-5.0
 10
18.0
 20
-5.0
 10
18.0
 20
-20.999996
  0
CIRCLE
  5
5C6
330
5AE
100
AcDbEntity
  8
0
100
AcDbCircle
 10
24.0
 20
-9.0000002
 30
0.0
 40
3.0
  0
CIRCLE
  5
5C7
330
5AE
100
AcDbEntity
  8
0
100
AcDbCircle
 10
24.0
 20
-9.0000002
 30
0.0
 40
2.0
  0
CIRCLE
  5
5C8
330
5AE
100
AcDbEntity
  8
0
100
AcDbCircle
 10
6.000000000000004
 20
-9.0000002
 30
0.0
 40
4.0
  0
CIRCLE
  5
5C9
330
5AE
100
AcDbEntity
  8
0
100
AcDbCircle
 10
6.000000000000004
 20
-9.0000002
 30
0.0
 40
3.0
  0
CIRCLE
  5
5CA
330
5AE
100
AcDbEntity
  8
0
100
AcDbCircle
 10
6.000000000000004
 20
-9.0000002
 30
0.0
 40
2.0
  0
LWPOLYLINE
  5
5CB
330
5AE
100
AcDbEntity
  8
0
100
AcDbPolyline
 90
        4
 70
     1
 43
0.0
 10
0.0
 20
-23.999996
 10
0.0
 20
0.0
 10
30.0
 20
0.0
 10
30.0
 20
-23.999996
  0
ENDBLK
  5
5CD
330
5AE
100
AcDbEntity
  8
0
100
AcDbBlockEnd
  0
BLOCK
  5
5F2
330
5D4
100
AcDbEntity
  8
0
100
AcDbBlockBegin
  2
Sink-double - 36 in top
 70
     0
 10
0.0
 20
0.0
 30
0.0
  3
Sink-double - 36 in top
  1
SINK_DOUBLE_36_INCH_TOP
  4
DesignCenter Kitchen example
  0
ARC
  5
5D5
330
5D4
100
AcDbEntity
  8
0
100
AcDbCircle
 10
15.5
 20
-6.5
 30
0.0
 40
1.0
100
AcDbArc
 50
0.0
 51
90.0
  0
ARC
  5
5D6
330
5D4
100
AcDbEntity
  8
0
100
AcDbCircle
 10
16.5
 20
-1.5
 30
0.0
 40
1.5
100
AcDbArc
 50
0.0
 51
90.0
  0
CIRCLE
  5
5D7
330
5D4
100
AcDbEntity
  8
0
100
AcDbCircle
 10
8.5
 20
-12.5
 30
0.0
 40
0.5
  0
CIRCLE
  5
5D8
330
5D4
100
AcDbEntity
  8
0
100
AcDbCircle
 10
8.5
 20
-12.5
 30
0.0
 40
1.0
  0
ARC
  5
5D9
330
5D4
100
AcDbEntity
  8
0
100
AcDbCircle
 10
15.5
 20
-18.5
 30
0.0
 40
1.0
100
AcDbArc
 50
270.0
 51
0.0
  0
ARC
  5
5DA
330
5D4
100
AcDbEntity
  8
0
100
AcDbCircle
 10
16.5
 20
-19.5
 30
0.0
 40
1.5
100
AcDbArc
 50
270.0
 51
0.0
  0
LWPOLYLINE
  5
5DB
330
5D4
100
AcDbEntity
  8
0
100
AcDbPolyline
 90
        2
 70
     0
 43
0.0
 10
16.5
 20
-6.5
 10
16.5
 20
-18.5
  0
LWPOLYLINE
  5
5DC
330
5D4
100
AcDbEntity
  8
0
100
AcDbPolyline
 90
        2
 70
     0
 43
0.0
 10
18.0
 20
-1.5
 10
18.0
 20
-19.5
  0
ARC
  5
5DD
330
5D4
100
AcDbEntity
  8
0
100
AcDbCircle
 10
1.75
 20
-6.5
 30
0.0
 40
1.0
100
AcDbArc
 50
90.0
 51
180.0
  0
ARC
  5
5DE
330
5D4
100
AcDbEntity
  8
0
100
AcDbCircle
 10
-1.75
 20
-6.5
 30
0.0
 40
1.0
100
AcDbArc
 50
0.0
 51
90.0
  0
ARC
  5
5DF
330
5D4
100
AcDbEntity
  8
0
100
AcDbCircle
 10
-15.5
 20
-6.5
 30
0.0
 40
1.0
100
AcDbArc
 50
90.0
 51
180.0
  0
ARC
  5
5E0
330
5D4
100
AcDbEntity
  8
0
100
AcDbCircle
 10
-16.5
 20
-1.5
 30
0.0
 40
1.5
100
AcDbArc
 50
90.0
 51
180.0
  0
LWPOLYLINE
  5
5E1
330
5D4
100
AcDbEntity
  8
0
100
AcDbPolyline
 90
        2
 70
     0
 43
0.0
 10
-15.5
 20
-5.5
 10
-1.75
 20
-5.5
  0
ARC
  5
5E2
330
5D4
100
AcDbEntity
  8
0
100
AcDbCircle
 10
1.75
 20
-18.5
 30
0.0
 40
1.0
100
AcDbArc
 50
180.0
 51
270.0
  0
ARC
  5
5E3
330
5D4
100
AcDbEntity
  8
0
100
AcDbCircle
 10
-1.75
 20
-18.5
 30
0.0
 40
1.0
100
AcDbArc
 50
270.0
 51
0.0
  0
CIRCLE
  5
5E4
330
5D4
100
AcDbEntity
  8
0
100
AcDbCircle
 10
-8.5
 20
-12.5
 30
0.0
 40
0.5
  0
CIRCLE
  5
5E5
330
5D4
100
AcDbEntity
  8
0
100
AcDbCircle
 10
-8.5
 20
-12.5
 30
0.0
 40
1.0
  0
ARC
  5
5E6
330
5D4
100
AcDbEntity
  8
0
100
AcDbCircle
 10
-15.5
 20
-18.5
 30
0.0
 40
1.0
100
AcDbArc
 50
180.0
 51
270.0
  0
ARC
  5
5E7
330
5D4
100
AcDbEntity
  8
0
100
AcDbCircle
 10
-16.5
 20
-19.5
 30
0.0
 40
1.5
100
AcDbArc
 50
180.0
 51
270.0
  0
LWPOLYLINE
  5
5E8
330
5D4
100
AcDbEntity
  8
0
100
AcDbPolyline
 90
        2
 70
     0
 43
0.0
 10
-1.75
 20
-19.5
 10
-15.5
 20
-19.5
  0
LWPOLYLINE
  5
5E9
330
5D4
100
AcDbEntity
  8
0
100
AcDbPolyline
 90
        2
 70
     0
 43
0.0
 10
-16.5
 20
-18.5
 10
-16.5
 20
-6.5
  0
LWPOLYLINE
  5
5EA
330
5D4
100
AcDbEntity
  8
0
100
AcDbPolyline
 90
        2
 70
     0
 43
0.0
 10
-18.0
 20
-19.5
 10
-18.0
 20
-1.5
  0
LINE
  5
5EB
330
5D4
100
AcDbEntity
  8
0
100
AcDbLine
 10
0.75
 20
-6.5
 30
0.0
 11
0.75
 21
-18.5
 31
0.0
  0
LINE
  5
5EC
330
5D4
100
AcDbEntity
  8
0
100
AcDbLine
 10
-0.75
 20
-18.5
 30
0.0
 11
-0.75
 21
-6.5
 31
0.0
  0
LWPOLYLINE
  5
5ED
330
5D4
100
AcDbEntity
  8
0
100
AcDbPolyline
 90
        2
 70
     0
 43
0.0
 10
16.5
 20
-21.0
 10
-16.5
 20
-21.0
  0
LWPOLYLINE
  5
5EE
330
5D4
100
AcDbEntity
  8
0
100
AcDbPolyline
 90
        2
 70
     0
 43
0.0
 10
-16.5
 20
0.0
 10
16.5
 20
0.0
  0
LINE
  5
5EF
330
5D4
100
AcDbEntity
  8
0
100
AcDbLine
 10
-18.0
 20
-4.0
 30
0.0
 11
18.0
 21
-4.0
 31
0.0
  0
LWPOLYLINE
  5
5F0
330
5D4
100
AcDbEntity
  8
0
100
AcDbPolyline
 90
        2
 70
     0
 43
0.0
 10
1.75
 20
-5.5
 10
15.5
 20
-5.5
  0
LWPOLYLINE
  5
5F1
330
5D4
100
AcDbEntity
  8
0
100
AcDbPolyline
 90
        2
 70
     0
 43
0.0
 10
15.5
 20
-19.5
 10
1.75
 20
-19.5
  0
ENDBLK
  5
5F3
330
5D4
100
AcDbEntity
  8
0
100
AcDbBlockEnd
  0
BLOCK
  5
601
330
5FA
100
AcDbEntity
  8
0
100
AcDbBlockBegin
  2
Refrigerator-2 door - 36 in top
 70
     0
 10
0.0
 20
0.0
 30
0.0
  3
Refrigerator-2 door - 36 in top
  1
REFRIGERATOR_2_DOOR_36_INCH_TOP
  4
DesignCenter Kitchen example
  0
LINE
  5
5FB
330
5FA
100
AcDbEntity
  8
0
100
AcDbLine
 10
12.0
 20
-26.999999
 30
0.0
 11
12.0
 21
-28.999999
 31
0.0
  0
LINE
  5
5FC
330
5FA
100
AcDbEntity
  8
0
100
AcDbLine
 10
13.0
 20
-28.999999
 30
0.0
 11
13.0
 21
-27.999999
 31
0.0
  0
LINE
  5
5FD
330
5FA
100
AcDbEntity
  8
0
100
AcDbLine
 10
11.0
 20
-28.999999
 30
0.0
 11
13.0
 21
-28.999999
 31
0.0
  0
LINE
  5
5FE
330
5FA
100
AcDbEntity
  8
0
100
AcDbLine
 10
11.0
 20
-27.999999
 30
0.0
 11
11.0
 21
-28.999999
 31
0.0
  0
LINE
  5
5FF
330
5FA
100
AcDbEntity
  8
0
100
AcDbLine
 10
0.0
 20
-26.999999
 30
0.0
 11
36.0
 21
-26.999999
 31
0.0
  0
LWPOLYLINE
  5
600
330
5FA
100
AcDbEntity
  8
0
100
AcDbPolyline
 90
        4
 70
     1
 43
0.0
 10
0.0
 20
-27.999999
 10
0.0
 20
0.0
 10
36.0
 20
0.0
 10
36.0
 20
-27.999999
  0
ENDBLK
  5
602
330
5FA
100
AcDbEntity
  8
0
100
AcDbBlockEnd
  0
BLOCK
  5
61D
330
609
100
AcDbEntity
  8
0
100
AcDbBlockBegin
  2
Sink-single - 30 in top
 70
     0
 10
0.0
 20
0.0
 30
0.0
  3
Sink-single - 30 in top
  1
SINK_SINGLE_30_INCH_TOP
  4
DesignCenter Kitchen example
  0
ARC
  5
60A
330
609
100
AcDbEntity
  8
0
100
AcDbCircle
 10
12.5
 20
-6.499996000000001
 30
0.0
 40
1.0
100
AcDbArc
 50
0.0
 51
90.0
  0
ARC
  5
60B
330
609
100
AcDbEntity
  8
0
100
AcDbCircle
 10
-12.5
 20
-6.499996000000001
 30
0.0
 40
1.0
100
AcDbArc
 50
90.0
 51
180.0
  0
CIRCLE
  5
60C
330
609
100
AcDbEntity
  8
0
100
AcDbCircle
 10
0.0
 20
-11.999996
 30
0.0
 40
0.5
  0
CIRCLE
  5
60D
330
609
100
AcDbEntity
  8
0
100
AcDbCircle
 10
0.0
 20
-11.999996
 30
0.0
 40
1.0
  0
LWPOLYLINE
  5
60E
330
609
100
AcDbEntity
  8
0
100
AcDbPolyline
 90
        2
 70
     0
 43
0.0
 10
-12.5
 20
-5.499996000000001
 10
12.5
 20
-5.499996000000001
  0
ARC
  5
60F
330
609
100
AcDbEntity
  8
0
100
AcDbCircle
 10
12.5
 20
-17.499996
 30
0.0
 40
1.0
100
AcDbArc
 50
270.0
 51
0.0
  0
ARC
  5
610
330
609
100
AcDbEntity
  8
0
100
AcDbCircle
 10
13.5
 20
-18.499996
 30
0.0
 40
1.5
100
AcDbArc
 50
270.0
 51
0.0
  0
ARC
  5
611
330
609
100
AcDbEntity
  8
0
100
AcDbCircle
 10
-12.5
 20
-17.499996
 30
0.0
 40
1.0
100
AcDbArc
 50
180.0
 51
270.0
  0
ARC
  5
612
330
609
100
AcDbEntity
  8
0
100
AcDbCircle
 10
-13.5
 20
-18.499996
 30
0.0
 40
1.5
100
AcDbArc
 50
180.0
 51
270.0
  0
LWPOLYLINE
  5
613
330
609
100
AcDbEntity
  8
0
100
AcDbPolyline
 90
        2
 70
     0
 43
0.0
 10
13.5
 20
-19.999996
 10
-13.5
 20
-19.999996
  0
LWPOLYLINE
  5
614
330
609
100
AcDbEntity
  8
0
100
AcDbPolyline
 90
        2
 70
     0
 43
0.0
 10
12.5
 20
-18.499996
 10
-12.5
 20
-18.499996
  0
LWPOLYLINE
  5
615
330
609
100
AcDbEntity
  8
0
100
AcDbPolyline
 90
        2
 70
     0
 43
0.0
 10
-13.5
 20
-17.499996
 10
-13.5
 20
-6.499996000000001
  0
LWPOLYLINE
  5
616
330
609
100
AcDbEntity
  8
0
100
AcDbPolyline
 90
        2
 70
     0
 43
0.0
 10
13.5
 20
-6.499996000000001
 10
13.5
 20
-17.499996
  0
ARC
  5
617
330
609
100
AcDbEntity
  8
0
100
AcDbCircle
 10
13.5
 20
-1.500000000000002
 30
0.0
 40
1.5
100
AcDbArc
 50
0.0
 51
90.0
  0
LWPOLYLINE
  5
618
330
609
100
AcDbEntity
  8
0
100
AcDbPolyline
 90
        2
 70
     0
 43
0.0
 10
15.0
 20
-1.500000000000002
 10
15.0
 20
-18.499996
  0
ARC
  5
619
330
609
100
AcDbEntity
  8
0
100
AcDbCircle
 10
-13.5
 20
-1.500000000000002
 30
0.0
 40
1.5
100
AcDbArc
 50
90.0
 51
180.0
  0
LWPOLYLINE
  5
61A
330
609
100
AcDbEntity
  8
0
100
AcDbPolyline
 90
        2
 70
     0
 43
0.0
 10
-15.0
 20
-18.499996
 10
-15.0
 20
-1.500000000000002
  0
LWPOLYLINE
  5
61B
330
609
100
AcDbEntity
  8
0
100
AcDbPolyline
 90
        2
 70
     0
 43
0.0
 10
-13.5
 20
0.0
 10
13.5
 20
0.0
  0
LINE
  5
61C
330
609
100
AcDbEntity
  8
0
100
AcDbLine
 10
-15.0
 20
-3.999996000000001
 30
0.0
 11
15.0
 21
-3.999996000000001
 31
0.0
  0
ENDBLK
  5
61E
330
609
100
AcDbEntity
  8
0
100
AcDbBlockEnd
  0
BLOCK
  5
633
330
625
100
AcDbEntity
  8
0
100
AcDbBlockBegin
  2
Base Cabinet 1 Door - 24 in front
 70
     0
 10
0.0
 20
0.0
 30
0.0
  3
Base Cabinet 1 Door - 24 in front
  1
BASE_CABINET_1_DRWR_24IN_FRONT
  4
DesignCenter Kitchen example
  0
LINE
  5
626
330
625
100
AcDbEntity
  8
0
100
AcDbLine
 10
0.0
 20
5.0
 30
0.0
 11
24.00000000000001
 21
5.0
 31
0.0
  0
LINE
  5
627
330
625
100
AcDbEntity
  8
0
100
AcDbLine
 10
23.00000000000001
 20
28.5
 30
0.0
 11
1.0
 21
28.5
 31
0.0
  0
LINE
  5
628
330
625
100
AcDbEntity
  8
0
100
AcDbLine
 10
1.0
 20
29.5
 30
0.0
 11
23.00000000000001
 21
29.5
 31
0.0
  0
LINE
  5
629
330
625
100
AcDbEntity
  8
0
100
AcDbLine
 10
0.0
 20
0.0
 30
0.0
 11
0.0
 21
34.5
 31
0.0
  0
LINE
  5
62A
330
625
100
AcDbEntity
  8
0
100
AcDbLine
 10
0.0
 20
34.5
 30
0.0
 11
24.00000000000001
 21
34.5
 31
0.0
  0
LINE
  5
62B
330
625
100
AcDbEntity
  8
0
100
AcDbLine
 10
24.00000000000001
 20
34.5
 30
0.0
 11
24.00000000000001
 21
0.0
 31
0.0
  0
LINE
  5
62C
330
625
100
AcDbEntity
  8
0
100
AcDbLine
 10
24.00000000000001
 20
0.0
 30
0.0
 11
0.0
 21
0.0
 31
0.0
  0
LINE
  5
62D
330
625
100
AcDbEntity
  8
0
100
AcDbLine
 10
23.00000000000001
 20
28.5
 30
0.0
 11
23.00000000000001
 21
6.0
 31
0.0
  0
LINE
  5
62E
330
625
100
AcDbEntity
  8
0
100
AcDbLine
 10
23.00000000000001
 20
6.0
 30
0.0
 11
1.0
 21
6.0
 31
0.0
  0
LINE
  5
62F
330
625
100
AcDbEntity
  8
0
100
AcDbLine
 10
1.0
 20
6.0
 30
0.0
 11
1.0
 21
28.5
 31
0.0
  0
LINE
  5
630
330
625
100
AcDbEntity
  8
0
100
AcDbLine
 10
1.0
 20
29.5
 30
0.0
 11
1.0
 21
33.5
 31
0.0
  0
LINE
  5
631
330
625
100
AcDbEntity
  8
0
100
AcDbLine
 10
1.0
 20
33.5
 30
0.0
 11
23.00000000000001
 21
33.5
 31
0.0
  0
LINE
  5
632
330
625
100
AcDbEntity
  8
0
100
AcDbLine
 10
23.00000000000001
 20
33.5
 30
0.0
 11
23.00000000000001
 21
29.5
 31
0.0
  0
ENDBLK
  5
634
330
625
100
AcDbEntity
  8
0
100
AcDbBlockEnd
  0
BLOCK
  5
63E
330
63B
100
AcDbEntity
  8
0
100
AcDbBlockBegin
  2
Wall Cabinet - 18 x 12 in side
 70
     0
 10
0.0
 20
0.0
 30
0.0
  3
Wall Cabinet - 18 x 12 in side
  1
WALL_CABINET_18X12_SIDE
  4
DesignCenter Kitchen example
  0
LWPOLYLINE
  5
63C
330
63B
100
AcDbEntity
  8
0
100
AcDbPolyline
 90
        4
 70
     1
 43
0.0
 10
-13.0
 20
-16.5
 10
-13.0
 20
-1.5
 10
-12.5
 20
-1.5
 10
-12.5
 20
-16.5
  0
LWPOLYLINE
  5
63D
330
63B
100
AcDbEntity
  8
0
100
AcDbPolyline
 90
        4
 70
     1
 43
0.0
 10
-12.0
 20
-18.0
 10
-12.0
 20
0.0
 10
0.0
 20
0.0
 10
0.0
 20
-18.0
  0
ENDBLK
  5
63F
330
63B
100
AcDbEntity
  8
0
100
AcDbBlockEnd
  0
BLOCK
  5
FD4
330
FC9
100
AcDbEntity
  8
0
100
AcDbBlockBegin
  2
*D49
 70
     1
 10
0.0
 20
0.0
 30
0.0
  3
*D49
  1

  0
LINE
  5
103A
330
FC9
100
AcDbEntity
  8
0
 62
     0
370
    -2
100
AcDbLine
 10
223.3041352886303
 20
182.0
 30
0.0
 11
193.1692671772207
 21
182.0
 31
0.0
  0
LINE
  5
103B
330
FC9
100
AcDbEntity
  8
0
 62
     0
370
    -2
100
AcDbLine
 10
223.3041352886303
 20
110.0
 30
0.0
 11
193.1692671772207
 21
110.0
 31
0.0
  0
LINE
  5
103C
330
FC9
100
AcDbEntity
  8
0
 62
     0
370
    -2
100
AcDbLine
 10
199.1692671772207
 20
182.0
 30
0.0
 11
199.1692671772207
 21
154.6763859111792
 31
0.0
  0
LINE
  5
103D
330
FC9
100
AcDbEntity
  8
0
 62
     0
370
    -2
100
AcDbLine
 10
199.1692671772207
 20
110.0
 30
0.0
 11
199.1692671772207
 21
137.3236140888208
 31
0.0
  0
INSERT
  5
103E
330
FC9
100
AcDbEntity
  8
0
 62
     0
370
    -2
100
AcDbBlockReference
  2
_Oblique
 10
199.1692671772207
 20
182.0
 30
0.0
 41
5.279999999999999
 42
5.279999999999999
 43
5.279999999999999
 50
90.0
  0
INSERT
  5
103F
330
FC9
100
AcDbEntity
  8
0
 62
     0
370
    -2
100
AcDbBlockReference
  2
_Oblique
 10
199.1692671772207
 20
110.0
 30
0.0
 41
5.279999999999999
 42
5.279999999999999
 43
5.279999999999999
 50
270.0
  0
MTEXT
  5
1040
330
FC9
100
AcDbEntity
  8
0
 62
     0
100
AcDbMText
 10
199.1692671772207
 20
146.0000000000001
 30
0.0
 40
5.279999999999999
 41
0.0
 46
0.0
 71
     5
 72
     1
  1
\A1;6'
 73
     1
 44
1.0
  0
POINT
  5
1041
330
FC9
100
AcDbEntity
  8
Defpoints
 62
     0
100
AcDbPoint
 10
229.3041352886303
 20
182.0
 30
0.0
  0
POINT
  5
1042
330
FC9
100
AcDbEntity
  8
Defpoints
 62
     0
100
AcDbPoint
 10
229.3041352886303
 20
110.0
 30
0.0
  0
POINT
  5
1043
330
FC9
100
AcDbEntity
  8
Defpoints
 62
     0
100
AcDbPoint
 10
199.1692671772207
 20
110.0
 30
0.0
  0
ENDBLK
  5
FD5
330
FC9
100
AcDbEntity
  8
0
100
AcDbBlockEnd
  0
BLOCK
  5
FE3
330
FD7
100
AcDbEntity
  8
0
100
AcDbBlockBegin
  2
*D50
 70
     1
 10
0.0
 20
0.0
 30
0.0
  3
*D50
  1

  0
LINE
  5
FD8
330
FD7
100
AcDbEntity
  8
0
 62
     0
370
    -2
100
AcDbLine
 10
287.3041352886303
 20
177.375
 30
0.0
 11
292.1854253809897
 21
177.375
 31
0.0
  0
LINE
  5
FD9
330
FD7
100
AcDbEntity
  8
0
 62
     0
370
    -2
100
AcDbLine
 10
287.3041352886303
 20
182.0
 30
0.0
 11
292.1854253809897
 21
182.0
 31
0.0
  0
LINE
  5
FDA
330
FD7
100
AcDbEntity
  8
0
 62
     0
370
    -2
100
AcDbLine
 10
286.1854253809897
 20
177.375
 30
0.0
 11
286.1854253809897
 21
172.095
 31
0.0
  0
LINE
  5
FDB
330
FD7
100
AcDbEntity
  8
0
 62
     0
370
    -2
100
AcDbLine
 10
286.1854253809897
 20
182.0
 30
0.0
 11
286.1854253809897
 21
192.56
 31
0.0
  0
LINE
  5
FDC
330
FD7
100
AcDbEntity
  8
0
 62
     0
370
    -2
100
AcDbLine
 10
286.1854253809897
 20
192.56
 30
0.0
 11
291.4654253809897
 21
192.56
 31
0.0
  0
INSERT
  5
FDD
330
FD7
100
AcDbEntity
  8
0
 62
     0
370
    -2
100
AcDbBlockReference
  2
_Oblique
 10
286.1854253809897
 20
177.375
 30
0.0
 41
5.279999999999999
 42
5.279999999999999
 43
5.279999999999999
 50
90.0
  0
INSERT
  5
FDE
330
FD7
100
AcDbEntity
  8
0
 62
     0
370
    -2
100
AcDbBlockReference
  2
_Oblique
 10
286.1854253809897
 20
182.0
 30
0.0
 41
5.279999999999999
 42
5.279999999999999
 43
5.279999999999999
 50
270.0
  0
MTEXT
  5
FDF
330
FD7
100
AcDbEntity
  8
0
 62
     0
100
AcDbMText
 10
302.0743074636849
 20
192.56
 30
0.0
 40
5.279999999999999
 41
0.0
 46
0.0
 71
     5
 72
     1
  1
\A1;4{\H1.000000x;\S5/8;}"
 73
     1
 44
1.0
  0
POINT
  5
FE0
330
FD7
100
AcDbEntity
  8
Defpoints
 62
     0
100
AcDbPoint
 10
281.3041352886303
 20
177.375
 30
0.0
  0
POINT
  5
FE1
330
FD7
100
AcDbEntity
  8
Defpoints
 62
     0
100
AcDbPoint
 10
281.3041352886303
 20
182.0
 30
0.0
  0
POINT
  5
FE2
330
FD7
100
AcDbEntity
  8
Defpoints
 62
     0
100
AcDbPoint
 10
286.1854253809897
 20
182.0
 30
0.0
  0
ENDBLK
  5
FE4
330
FD7
100
AcDbEntity
  8
0
100
AcDbBlockEnd
  0
BLOCK
  5
FF2
330
FE6
100
AcDbEntity
  8
0
100
AcDbBlockBegin
  2
*D51
 70
     1
 10
0.0
 20
0.0
 30
0.0
  3
*D51
  1

  0
LINE
  5
FE7
330
FE6
100
AcDbEntity
  8
0
 62
     0
370
    -2
100
AcDbLine
 10
287.3041352886303
 20
171.375
 30
0.0
 11
310.8317464900038
 21
171.375
 31
0.0
  0
LINE
  5
FE8
330
FE6
100
AcDbEntity
  8
0
 62
     0
370
    -2
100
AcDbLine
 10
287.3041352886303
 20
177.375
 30
0.0
 11
310.8317464900038
 21
177.375
 31
0.0
  0
LINE
  5
FE9
330
FE6
100
AcDbEntity
  8
0
 62
     0
370
    -2
100
AcDbLine
 10
304.8317464900038
 20
171.375
 30
0.0
 11
304.8317464900038
 21
166.095
 31
0.0
  0
LINE
  5
FEA
330
FE6
100
AcDbEntity
  8
0
 62
     0
370
    -2
100
AcDbLine
 10
304.8317464900038
 20
177.375
 30
0.0
 11
304.8317464900038
 21
187.935
 31
0.0
  0
LINE
  5
FEB
330
FE6
100
AcDbEntity
  8
0
 62
     0
370
    -2
100
AcDbLine
 10
304.8317464900038
 20
187.935
 30
0.0
 11
310.1117464900037
 21
187.935
 31
0.0
  0
INSERT
  5
FEC
330
FE6
100
AcDbEntity
  8
0
 62
     0
370
    -2
100
AcDbBlockReference
  2
_Oblique
 10
304.8317464900038
 20
171.375
 30
0.0
 41
5.279999999999999
 42
5.279999999999999
 43
5.279999999999999
 50
90.0
  0
INSERT
  5
FED
330
FE6
100
AcDbEntity
  8
0
 62
     0
370
    -2
100
AcDbBlockReference
  2
_Oblique
 10
304.8317464900038
 20
177.375
 30
0.0
 41
5.279999999999999
 42
5.279999999999999
 43
5.279999999999999
 50
270.0
  0
MTEXT
  5
FEE
330
FE6
100
AcDbEntity
  8
0
 62
     0
100
AcDbMText
 10
318.8932472557005
 20
187.935
 30
0.0
 40
5.279999999999999
 41
0.0
 46
0.0
 71
     5
 72
     1
  1
\A1;6"
 73
     1
 44
1.0
  0
POINT
  5
FEF
330
FE6
100
AcDbEntity
  8
Defpoints
 62
     0
100
AcDbPoint
 10
281.3041352886303
 20
171.375
 30
0.0
  0
POINT
  5
FF0
330
FE6
100
AcDbEntity
  8
Defpoints
 62
     0
100
AcDbPoint
 10
281.3041352886303
 20
177.375
 30
0.0
  0
POINT
  5
FF1
330
FE6
100
AcDbEntity
  8
Defpoints
 62
     0
100
AcDbPoint
 10
304.8317464900038
 20
177.375
 30
0.0
  0
ENDBLK
  5
FF3
330
FE6
100
AcDbEntity
  8
0
100
AcDbBlockEnd
  0
BLOCK
  5
1001
330
FF5
100
AcDbEntity
  8
0
100
AcDbBlockBegin
  2
*D52
 70
     1
 10
0.0
 20
0.0
 30
0.0
  3
*D52
  1

  0
LINE
  5
FF6
330
FF5
100
AcDbEntity
  8
0
 62
     0
370
    -2
100
AcDbLine
 10
288.5722976281022
 20
167.75
 30
0.0
 11
316.6032280782047
 21
167.75
 31
0.0
  0
LINE
  5
FF7
330
FF5
100
AcDbEntity
  8
0
 62
     0
370
    -2
100
AcDbLine
 10
287.3041352886303
 20
171.375
 30
0.0
 11
316.6032280782047
 21
171.375
 31
0.0
  0
LINE
  5
FF8
330
FF5
100
AcDbEntity
  8
0
 62
     0
370
    -2
100
AcDbLine
 10
310.6032280782047
 20
167.75
 30
0.0
 11
310.6032280782047
 21
162.47
 31
0.0
  0
LINE
  5
FF9
330
FF5
100
AcDbEntity
  8
0
 62
     0
370
    -2
100
AcDbLine
 10
310.6032280782047
 20
171.375
 30
0.0
 11
310.6032280782047
 21
181.935
 31
0.0
  0
LINE
  5
FFA
330
FF5
100
AcDbEntity
  8
0
 62
     0
370
    -2
100
AcDbLine
 10
310.6032280782047
 20
181.935
 30
0.0
 11
315.8832280782046
 21
181.935
 31
0.0
  0
INSERT
  5
FFB
330
FF5
100
AcDbEntity
  8
0
 62
     0
370
    -2
100
AcDbBlockReference
  2
_Oblique
 10
310.6032280782047
 20
167.75
 30
0.0
 41
5.279999999999999
 42
5.279999999999999
 43
5.279999999999999
 50
90.0
  0
INSERT
  5
FFC
330
FF5
100
AcDbEntity
  8
0
 62
     0
370
    -2
100
AcDbBlockReference
  2
_Oblique
 10
310.6032280782047
 20
171.375
 30
0.0
 41
5.279999999999999
 42
5.279999999999999
 43
5.279999999999999
 50
270.0
  0
MTEXT
  5
FFD
330
FF5
100
AcDbEntity
  8
0
 62
     0
100
AcDbMText
 10
326.4921101608999
 20
181.935
 30
0.0
 40
5.279999999999999
 41
0.0
 46
0.0
 71
     5
 72
     1
  1
\A1;3{\H1.000000x;\S5/8;}"
 73
     1
 44
1.0
  0
POINT
  5
FFE
330
FF5
100
AcDbEntity
  8
Defpoints
 62
     0
100
AcDbPoint
 10
282.5722976281022
 20
167.75
 30
0.0
  0
POINT
  5
FFF
330
FF5
100
AcDbEntity
  8
Defpoints
 62
     0
100
AcDbPoint
 10
281.3041352886303
 20
171.375
 30
0.0
  0
POINT
  5
1000
330
FF5
100
AcDbEntity
  8
Defpoints
 62
     0
100
AcDbPoint
 10
310.6032280782047
 20
171.375
 30
0.0
  0
ENDBLK
  5
1002
330
FF5
100
AcDbEntity
  8
0
100
AcDbBlockEnd
  0
BLOCK
  5
1010
330
1004
100
AcDbEntity
  8
0
100
AcDbBlockBegin
  2
*D53
 70
     1
 10
0.0
 20
0.0
 30
0.0
  3
*D53
  1

  0
LINE
  5
1005
330
1004
100
AcDbEntity
  8
0
 62
     0
370
    -2
100
AcDbLine
 10
287.3041352886303
 20
163.5
 30
0.0
 11
334.8055886628399
 21
163.5
 31
0.0
  0
LINE
  5
1006
330
1004
100
AcDbEntity
  8
0
 62
     0
370
    -2
100
AcDbLine
 10
287.3041352886303
 20
167.75
 30
0.0
 11
334.8055886628399
 21
167.75
 31
0.0
  0
LINE
  5
1007
330
1004
100
AcDbEntity
  8
0
 62
     0
370
    -2
100
AcDbLine
 10
328.8055886628399
 20
163.5
 30
0.0
 11
328.8055886628399
 21
158.22
 31
0.0
  0
LINE
  5
1008
330
1004
100
AcDbEntity
  8
0
 62
     0
370
    -2
100
AcDbLine
 10
328.8055886628399
 20
167.75
 30
0.0
 11
328.8055886628399
 21
178.31
 31
0.0
  0
LINE
  5
1009
330
1004
100
AcDbEntity
  8
0
 62
     0
370
    -2
100
AcDbLine
 10
328.8055886628399
 20
178.31
 30
0.0
 11
334.0855886628399
 21
178.31
 31
0.0
  0
INSERT
  5
100A
330
1004
100
AcDbEntity
  8
0
 62
     0
370
    -2
100
AcDbBlockReference
  2
_Oblique
 10
328.8055886628399
 20
163.5
 30
0.0
 41
5.279999999999999
 42
5.279999999999999
 43
5.279999999999999
 50
90.0
  0
INSERT
  5
100B
330
1004
100
AcDbEntity
  8
0
 62
     0
370
    -2
100
AcDbBlockReference
  2
_Oblique
 10
328.8055886628399
 20
167.75
 30
0.0
 41
5.279999999999999
 42
5.279999999999999
 43
5.279999999999999
 50
270.0
  0
MTEXT
  5
100C
330
1004
100
AcDbEntity
  8
0
 62
     0
100
AcDbMText
 10
344.6499990763161
 20
178.31
 30
0.0
 40
5.279999999999999
 41
0.0
 46
0.0
 71
     5
 72
     1
  1
\A1;4{\H1.000000x;\S1/4;}"
 73
     1
 44
1.0
  0
POINT
  5
100D
330
1004
100
AcDbEntity
  8
Defpoints
 62
     0
100
AcDbPoint
 10
281.3041352886303
 20
163.5
 30
0.0
  0
POINT
  5
100E
330
1004
100
AcDbEntity
  8
Defpoints
 62
     0
100
AcDbPoint
 10
281.3041352886303
 20
167.75
 30
0.0
  0
POINT
  5
100F
330
1004
100
AcDbEntity
  8
Defpoints
 62
     0
100
AcDbPoint
 10
328.8055886628399
 20
167.75
 30
0.0
  0
ENDBLK
  5
1011
330
1004
100
AcDbEntity
  8
0
100
AcDbBlockEnd
  0
BLOCK
  5
102C
330
1021
100
AcDbEntity
  8
0
100
AcDbBlockBegin
  2
*D55
 70
     1
 10
0.0
 20
0.0
 30
0.0
  3
*D55
  1

  0
LINE
  5
1022
330
1021
100
AcDbEntity
  8
0
 62
     0
370
    -2
100
AcDbLine
 10
239.9291352886303
 20
134.5
 30
0.0
 11
239.9291352886303
 21
140.0534432664299
 31
0.0
  0
LINE
  5
1023
330
1021
100
AcDbEntity
  8
0
 62
     0
370
    -2
100
AcDbLine
 10
234.4291352886303
 20
134.5
 30
0.0
 11
234.4291352886303
 21
140.0534432664299
 31
0.0
  0
LINE
  5
1024
330
1021
100
AcDbEntity
  8
0
 62
     0
370
    -2
100
AcDbLine
 10
239.9291352886303
 20
134.0534432664299
 30
0.0
 11
245.2091352886303
 21
134.0534432664299
 31
0.0
  0
LINE
  5
1025
330
1021
100
AcDbEntity
  8
0
 62
     0
370
    -2
100
AcDbLine
 10
234.4291352886303
 20
134.0534432664299
 30
0.0
 11
223.8691352886303
 21
134.0534432664299
 31
0.0
  0
INSERT
  5
1026
330
1021
100
AcDbEntity
  8
0
 62
     0
370
    -2
100
AcDbBlockReference
  2
_Oblique
 10
239.9291352886303
 20
134.0534432664299
 30
0.0
 41
5.279999999999999
 42
5.279999999999999
 43
5.279999999999999
 50
180.0
  0
INSERT
  5
1027
330
1021
100
AcDbEntity
  8
0
 62
     0
370
    -2
100
AcDbBlockReference
  2
_Oblique
 10
234.4291352886303
 20
134.0534432664299
 30
0.0
 41
5.279999999999999
 42
5.279999999999999
 43
5.279999999999999
  0
MTEXT
  5
1028
330
1021
100
AcDbEntity
  8
0
 62
     0
100
AcDbMText
 10
213.4866544310499
 20
134.0534432664299
 30
0.0
 40
5.279999999999999
 41
0.0
 46
0.0
 71
     5
 72
     1
  1
\A1;5{\H1.000000x;\S1/2;}"
 73
     1
 44
1.0
  0
POINT
  5
1029
330
1021
100
AcDbEntity
  8
Defpoints
 62
     0
100
AcDbPoint
 10
239.9291352886303
 20
128.5
 30
0.0
  0
POINT
  5
102A
330
1021
100
AcDbEntity
  8
Defpoints
 62
     0
100
AcDbPoint
 10
234.4291352886303
 20
128.5
 30
0.0
  0
POINT
  5
102B
330
1021
100
AcDbEntity
  8
Defpoints
 62
     0
100
AcDbPoint
 10
234.4291352886303
 20
134.0534432664299
 30
0.0
  0
ENDBLK
  5
102D
330
1021
100
AcDbEntity
  8
0
100
AcDbBlockEnd
  0
BLOCK
  5
1038
330
102F
100
AcDbEntity
  8
0
100
AcDbBlockBegin
  2
*D56
 70
     1
 10
0.0
 20
0.0
 30
0.0
  3
*D56
  1

  0
LINE
  5
1030
330
102F
100
AcDbEntity
  8
0
 62
     0
370
    -2
100
AcDbLine
 10
243.9291352886303
 20
146.0000000000001
 30
0.0
 11
249.2091352886303
 21
146.0000000000001
 31
0.0
  0
LINE
  5
1031
330
102F
100
AcDbEntity
  8
0
 62
     0
370
    -2
100
AcDbLine
 10
239.9291352886303
 20
146.0000000000001
 30
0.0
 11
229.3691352886303
 21
146.0000000000001
 31
0.0
  0
INSERT
  5
1032
330
102F
100
AcDbEntity
  8
0
 62
     0
370
    -2
100
AcDbBlockReference
  2
_Oblique
 10
243.9291352886303
 20
146.0000000000001
 30
0.0
 41
5.279999999999999
 42
5.279999999999999
 43
5.279999999999999
 50
180.0
  0
INSERT
  5
1033
330
102F
100
AcDbEntity
  8
0
 62
     0
370
    -2
100
AcDbBlockReference
  2
_Oblique
 10
239.9291352886303
 20
146.0000000000001
 30
0.0
 41
5.279999999999999
 42
5.279999999999999
 43
5.279999999999999
  0
MTEXT
  5
1034
330
102F
100
AcDbEntity
  8
0
 62
     0
100
AcDbMText
 10
220.5189055795951
 20
146.0000000000001
 30
0.0
 40
5.279999999999999
 41
0.0
 46
0.0
 71
     5
 72
     1
  1
\A1;4"
 73
     1
 44
1.0
  0
POINT
  5
1035
330
102F
100
AcDbEntity
  8
Defpoints
 62
     0
100
AcDbPoint
 10
243.9291352886303
 20
146.0
 30
0.0
  0
POINT
  5
1036
330
102F
100
AcDbEntity
  8
Defpoints
 62
     0
100
AcDbPoint
 10
239.9291352886303
 20
146.0
 30
0.0
  0
POINT
  5
1037
330
102F
100
AcDbEntity
  8
Defpoints
 62
     0
100
AcDbPoint
 10
239.9291352886303
 20
146.0000000000001
 30
0.0
  0
ENDBLK
  5
1039
330
102F
100
AcDbEntity
  8
0
100
AcDbBlockEnd
  0
BLOCK
  5
1050
330
1045
100
AcDbEntity
  8
0
100
AcDbBlockBegin
  2
*D57
 70
     1
 10
0.0
 20
0.0
 30
0.0
  3
*D57
  1

  0
LINE
  5
1046
330
1045
100
AcDbEntity
  8
0
 62
     0
370
    -2
100
AcDbLine
 10
247.8041352886303
 20
157.5
 30
0.0
 11
247.8041352886303
 21
156.4132898084949
 31
0.0
  0
LINE
  5
1047
330
1045
100
AcDbEntity
  8
0
 62
     0
370
    -2
100
AcDbLine
 10
243.9291352886303
 20
157.5
 30
0.0
 11
243.9291352886303
 21
156.4132898084949
 31
0.0
  0
LINE
  5
1048
330
1045
100
AcDbEntity
  8
0
 62
     0
370
    -2
100
AcDbLine
 10
247.8041352886303
 20
162.4132898084949
 30
0.0
 11
253.0841352886303
 21
162.4132898084949
 31
0.0
  0
LINE
  5
1049
330
1045
100
AcDbEntity
  8
0
 62
     0
370
    -2
100
AcDbLine
 10
243.9291352886303
 20
162.4132898084949
 30
0.0
 11
233.3691352886303
 21
162.4132898084949
 31
0.0
  0
INSERT
  5
104A
330
1045
100
AcDbEntity
  8
0
 62
     0
370
    -2
100
AcDbBlockReference
  2
_Oblique
 10
247.8041352886303
 20
162.4132898084949
 30
0.0
 41
5.279999999999999
 42
5.279999999999999
 43
5.279999999999999
 50
180.0
  0
INSERT
  5
104B
330
1045
100
AcDbEntity
  8
0
 62
     0
370
    -2
100
AcDbBlockReference
  2
_Oblique
 10
243.9291352886303
 20
162.4132898084949
 30
0.0
 41
5.279999999999999
 42
5.279999999999999
 43
5.279999999999999
  0
MTEXT
  5
104C
330
1045
100
AcDbEntity
  8
0
 62
     0
100
AcDbMText
 10
222.760253205935
 20
162.4132898084949
 30
0.0
 40
5.279999999999999
 41
0.0
 46
0.0
 71
     5
 72
     1
  1
\A1;3{\H1.000000x;\S7/8;}"
 73
     1
 44
1.0
  0
POINT
  5
104D
330
1045
100
AcDbEntity
  8
Defpoints
 62
     0
100
AcDbPoint
 10
247.8041352886303
 20
163.5
 30
0.0
  0
POINT
  5
104E
330
1045
100
AcDbEntity
  8
Defpoints
 62
     0
100
AcDbPoint
 10
243.9291352886303
 20
163.5
 30
0.0
  0
POINT
  5
104F
330
1045
100
AcDbEntity
  8
Defpoints
 62
     0
100
AcDbPoint
 10
243.9291352886303
 20
162.4132898084949
 30
0.0
  0
ENDBLK
  5
1051
330
1045
100
AcDbEntity
  8
0
100
AcDbBlockEnd
  0
BLOCK
  5
105E
330
1053
100
AcDbEntity
  8
0
100
AcDbBlockBegin
  2
*D58
 70
     1
 10
0.0
 20
0.0
 30
0.0
  3
*D58
  1

  0
LINE
  5
1054
330
1053
100
AcDbEntity
  8
0
 62
     0
370
    -2
100
AcDbLine
 10
234.4291352886303
 20
120.625
 30
0.0
 11
234.4291352886303
 21
127.5625
 31
0.0
  0
LINE
  5
1055
330
1053
100
AcDbEntity
  8
0
 62
     0
370
    -2
100
AcDbLine
 10
229.8041352886303
 20
120.625
 30
0.0
 11
229.8041352886303
 21
127.5625
 31
0.0
  0
LINE
  5
1056
330
1053
100
AcDbEntity
  8
0
 62
     0
370
    -2
100
AcDbLine
 10
234.4291352886303
 20
121.5625
 30
0.0
 11
239.7091352886303
 21
121.5625
 31
0.0
  0
LINE
  5
1057
330
1053
100
AcDbEntity
  8
0
 62
     0
370
    -2
100
AcDbLine
 10
229.8041352886303
 20
121.5625
 30
0.0
 11
219.2441352886303
 21
121.5625
 31
0.0
  0
INSERT
  5
1058
330
1053
100
AcDbEntity
  8
0
 62
     0
370
    -2
100
AcDbBlockReference
  2
_Oblique
 10
234.4291352886303
 20
121.5625
 30
0.0
 41
5.279999999999999
 42
5.279999999999999
 43
5.279999999999999
 50
180.0
  0
INSERT
  5
1059
330
1053
100
AcDbEntity
  8
0
 62
     0
370
    -2
100
AcDbBlockReference
  2
_Oblique
 10
229.8041352886303
 20
121.5625
 30
0.0
 41
5.279999999999999
 42
5.279999999999999
 43
5.279999999999999
  0
MTEXT
  5
105A
330
1053
100
AcDbEntity
  8
0
 62
     0
100
AcDbMText
 10
208.6352532059351
 20
121.5625
 30
0.0
 40
5.279999999999999
 41
0.0
 46
0.0
 71
     5
 72
     1
  1
\A1;4{\H1.000000x;\S5/8;}"
 73
     1
 44
1.0
  0
POINT
  5
105B
330
1053
100
AcDbEntity
  8
Defpoints
 62
     0
100
AcDbPoint
 10
234.4291352886303
 20
114.625
 30
0.0
  0
POINT
  5
105C
330
1053
100
AcDbEntity
  8
Defpoints
 62
     0
100
AcDbPoint
 10
229.8041352886303
 20
114.625
 30
0.0
  0
POINT
  5
105D
330
1053
100
AcDbEntity
  8
Defpoints
 62
     0
100
AcDbPoint
 10
229.8041352886303
 20
121.5625
 30
0.0
  0
ENDBLK
  5
105F
330
1053
100
AcDbEntity
  8
0
100
AcDbBlockEnd
  0
BLOCK
  5
10E7
330
10DC
100
AcDbEntity
  8
0
100
AcDbBlockBegin
  2
*D60
 70
     1
 10
0.0
 20
0.0
 30
0.0
  3
*D60
  1

  0
LINE
  5
10DD
330
10DC
100
AcDbEntity
  8
0
 62
     0
370
    -2
100
AcDbLine
 10
603.6791352886303
 20
187.75
 30
0.0
 11
621.8109305168682
 21
187.75
 31
0.0
  0
LINE
  5
10DE
330
10DC
100
AcDbEntity
  8
0
 62
     0
370
    -2
100
AcDbLine
 10
568.4291352886314
 20
150.2500000000002
 30
0.0
 11
621.8109305168682
 21
150.2500000000001
 31
0.0
  0
LINE
  5
10DF
330
10DC
100
AcDbEntity
  8
0
 62
     0
370
    -2
100
AcDbLine
 10
615.8109305168682
 20
187.75
 30
0.0
 11
615.8109305168682
 21
181.2327718223584
 31
0.0
  0
LINE
  5
10E0
330
10DC
100
AcDbEntity
  8
0
 62
     0
370
    -2
100
AcDbLine
 10
615.8109305168682
 20
150.2500000000001
 30
0.0
 11
615.8109305168682
 21
156.7672281776417
 31
0.0
  0
INSERT
  5
10E1
330
10DC
100
AcDbEntity
  8
0
 62
     0
370
    -2
100
AcDbBlockReference
  2
_Oblique
 10
615.8109305168682
 20
187.75
 30
0.0
 41
5.279999999999999
 42
5.279999999999999
 43
5.279999999999999
 50
90.0
  0
INSERT
  5
10E2
330
10DC
100
AcDbEntity
  8
0
 62
     0
370
    -2
100
AcDbBlockReference
  2
_Oblique
 10
615.8109305168682
 20
150.2500000000001
 30
0.0
 41
5.279999999999999
 42
5.279999999999999
 43
5.279999999999999
 50
270.0
  0
MTEXT
  5
10E3
330
10DC
100
AcDbEntity
  8
0
 62
     0
100
AcDbMText
 10
615.8109305168682
 20
169.0000000000002
 30
0.0
 40
5.279999999999999
 41
0.0
 46
0.0
 71
     5
 72
     1
  1
\A1;3'-1{\H1.000000x;\S1/2;}"
 73
     1
 44
1.0
  0
POINT
  5
10E4
330
10DC
100
AcDbEntity
  8
Defpoints
 62
     0
100
AcDbPoint
 10
597.6791352886303
 20
187.75
 30
0.0
  0
POINT
  5
10E5
330
10DC
100
AcDbEntity
  8
Defpoints
 62
     0
100
AcDbPoint
 10
562.4291352886314
 20
150.2500000000002
 30
0.0
  0
POINT
  5
10E6
330
10DC
100
AcDbEntity
  8
Defpoints
 62
     0
100
AcDbPoint
 10
615.8109305168682
 20
150.2500000000001
 30
0.0
  0
ENDBLK
  5
10E8
330
10DC
100
AcDbEntity
  8
0
100
AcDbBlockEnd
  0
BLOCK
  5
10F5
330
10EA
100
AcDbEntity
  8
0
100
AcDbBlockBegin
  2
*D61
 70
     1
 10
0.0
 20
0.0
 30
0.0
  3
*D61
  1

  0
LINE
  5
10EB
330
10EA
100
AcDbEntity
  8
0
 62
     0
370
    -2
100
AcDbLine
 10
603.6791352886303
 20
187.75
 30
0.0
 11
643.3577870954405
 21
187.75
 31
0.0
  0
LINE
  5
10EC
330
10EA
100
AcDbEntity
  8
0
 62
     0
370
    -2
100
AcDbLine
 10
603.6791352886303
 20
143.1250000000004
 30
0.0
 11
643.3577870954405
 21
143.1250000000004
 31
0.0
  0
LINE
  5
10ED
330
10EA
100
AcDbEntity
  8
0
 62
     0
370
    -2
100
AcDbLine
 10
637.3577870954405
 20
187.75
 30
0.0
 11
637.3577870954405
 21
177.7187863705974
 31
0.0
  0
LINE
  5
10EE
330
10EA
100
AcDbEntity
  8
0
 62
     0
370
    -2
100
AcDbLine
 10
637.3577870954405
 20
143.1250000000004
 30
0.0
 11
637.3577870954405
 21
153.156213629403
 31
0.0
  0
INSERT
  5
10EF
330
10EA
100
AcDbEntity
  8
0
 62
     0
370
    -2
100
AcDbBlockReference
  2
_Oblique
 10
637.3577870954405
 20
187.75
 30
0.0
 41
5.279999999999999
 42
5.279999999999999
 43
5.279999999999999
 50
90.0
  0
INSERT
  5
10F0
330
10EA
100
AcDbEntity
  8
0
 62
     0
370
    -2
100
AcDbBlockReference
  2
_Oblique
 10
637.3577870954405
 20
143.1250000000004
 30
0.0
 41
5.279999999999999
 42
5.279999999999999
 43
5.279999999999999
 50
270.0
  0
MTEXT
  5
10F1
330
10EA
100
AcDbEntity
  8
0
 62
     0
100
AcDbMText
 10
637.3577870954405
 20
165.4375000000003
 30
0.0
 40
5.279999999999999
 41
0.0
 46
0.0
 71
     5
 72
     1
  1
\A1;3'-8{\H1.000000x;\S5/8;}"
 73
     1
 44
1.0
  0
POINT
  5
10F2
330
10EA
100
AcDbEntity
  8
Defpoints
 62
     0
100
AcDbPoint
 10
597.6791352886303
 20
187.75
 30
0.0
  0
POINT
  5
10F3
330
10EA
100
AcDbEntity
  8
Defpoints
 62
     0
100
AcDbPoint
 10
597.6791352886303
 20
143.1250000000004
 30
0.0
  0
POINT
  5
10F4
330
10EA
100
AcDbEntity
  8
Defpoints
 62
     0
100
AcDbPoint
 10
637.3577870954405
 20
143.1250000000004
 30
0.0
  0
ENDBLK
  5
10F6
330
10EA
100
AcDbEntity
  8
0
100
AcDbBlockEnd
  0
BLOCK
  5
1104
330
10F8
100
AcDbEntity
  8
0
100
AcDbBlockBegin
  2
*D62
 70
     1
 10
0.0
 20
0.0
 30
0.0
  3
*D62
  1

  0
LINE
  5
10F9
330
10F8
100
AcDbEntity
  8
0
 62
     0
370
    -2
100
AcDbLine
 10
603.6791352886303
 20
143.1250000000004
 30
0.0
 11
643.3577870954405
 21
143.1250000000004
 31
0.0
  0
LINE
  5
10FA
330
10F8
100
AcDbEntity
  8
0
 62
     0
370
    -2
100
AcDbLine
 10
603.6791352886303
 20
133.1250000000004
 30
0.0
 11
643.3577870954405
 21
133.1250000000004
 31
0.0
  0
LINE
  5
10FB
330
10F8
100
AcDbEntity
  8
0
 62
     0
370
    -2
100
AcDbLine
 10
637.3577870954405
 20
143.1250000000004
 30
0.0
 11
637.3577870954405
 21
148.4050000000004
 31
0.0
  0
LINE
  5
10FC
330
10F8
100
AcDbEntity
  8
0
 62
     0
370
    -2
100
AcDbLine
 10
637.3577870954405
 20
133.1250000000004
 30
0.0
 11
637.3577870954405
 21
122.5650000000004
 31
0.0
  0
LINE
  5
10FD
330
10F8
100
AcDbEntity
  8
0
 62
     0
370
    -2
100
AcDbLine
 10
637.3577870954405
 20
122.5650000000004
 30
0.0
 11
632.0777870954405
 21
122.5650000000004
 31
0.0
  0
INSERT
  5
10FE
330
10F8
100
AcDbEntity
  8
0
 62
     0
370
    -2
100
AcDbBlockReference
  2
_Oblique
 10
637.3577870954405
 20
143.1250000000004
 30
0.0
 41
5.279999999999999
 42
5.279999999999999
 43
5.279999999999999
 50
270.0
  0
INSERT
  5
10FF
330
10F8
100
AcDbEntity
  8
0
 62
     0
370
    -2
100
AcDbBlockReference
  2
_Oblique
 10
637.3577870954405
 20
133.1250000000004
 30
0.0
 41
5.279999999999999
 42
5.279999999999999
 43
5.279999999999999
 50
90.0
  0
MTEXT
  5
1100
330
10F8
100
AcDbEntity
  8
0
 62
     0
100
AcDbMText
 10
621.5376339560837
 20
122.5650000000005
 30
0.0
 40
5.279999999999999
 41
0.0
 46
0.0
 71
     5
 72
     1
  1
\A1;10"
 73
     1
 44
1.0
  0
POINT
  5
1101
330
10F8
100
AcDbEntity
  8
Defpoints
 62
     0
100
AcDbPoint
 10
597.6791352886303
 20
143.1250000000004
 30
0.0
  0
POINT
  5
1102
330
10F8
100
AcDbEntity
  8
Defpoints
 62
     0
100
AcDbPoint
 10
597.6791352886303
 20
133.1250000000004
 30
0.0
  0
POINT
  5
1103
330
10F8
100
AcDbEntity
  8
Defpoints
 62
     0
100
AcDbPoint
 10
637.3577870954405
 20
133.1250000000004
 30
0.0
  0
ENDBLK
  5
1105
330
10F8
100
AcDbEntity
  8
0
100
AcDbBlockEnd
  0
BLOCK
  5
1112
330
1107
100
AcDbEntity
  8
0
100
AcDbBlockBegin
  2
*D63
 70
     1
 10
0.0
 20
0.0
 30
0.0
  3
*D63
  1

  0
LINE
  5
1108
330
1107
100
AcDbEntity
  8
0
 62
     0
370
    -2
100
AcDbLine
 10
554.6791352886312
 20
122.8123693519096
 30
0.0
 11
554.6791352886312
 21
67.192274305703
 31
0.0
  0
LINE
  5
1109
330
1107
100
AcDbEntity
  8
0
 62
     0
370
    -2
100
AcDbLine
 10
560.4291352886311
 20
122.8123693519096
 30
0.0
 11
560.4291352886311
 21
67.192274305703
 31
0.0
  0
LINE
  5
110A
330
1107
100
AcDbEntity
  8
0
 62
     0
370
    -2
100
AcDbLine
 10
554.6791352886312
 20
73.192274305703
 30
0.0
 11
549.3991352886312
 21
73.192274305703
 31
0.0
  0
LINE
  5
110B
330
1107
100
AcDbEntity
  8
0
 62
     0
370
    -2
100
AcDbLine
 10
560.4291352886311
 20
73.192274305703
 30
0.0
 11
570.9891352886311
 21
73.192274305703
 31
0.0
  0
INSERT
  5
110C
330
1107
100
AcDbEntity
  8
0
 62
     0
370
    -2
100
AcDbBlockReference
  2
_Oblique
 10
554.6791352886312
 20
73.192274305703
 30
0.0
 41
5.279999999999999
 42
5.279999999999999
 43
5.279999999999999
  0
INSERT
  5
110D
330
1107
100
AcDbEntity
  8
0
 62
     0
370
    -2
100
AcDbBlockReference
  2
_Oblique
 10
560.4291352886311
 20
73.192274305703
 30
0.0
 41
5.279999999999999
 42
5.279999999999999
 43
5.279999999999999
 50
180.0
  0
MTEXT
  5
110E
330
1107
100
AcDbEntity
  8
0
 62
     0
100
AcDbMText
 10
581.5171597909282
 20
73.192274305703
 30
0.0
 40
5.279999999999999
 41
0.0
 46
0.0
 71
     5
 72
     1
  1
\A1;5{\H1.000000x;\S3/4;}"
 73
     1
 44
1.0
  0
POINT
  5
110F
330
1107
100
AcDbEntity
  8
Defpoints
 62
     0
100
AcDbPoint
 10
554.6791352886312
 20
128.8123693519096
 30
0.0
  0
POINT
  5
1110
330
1107
100
AcDbEntity
  8
Defpoints
 62
     0
100
AcDbPoint
 10
560.4291352886311
 20
128.8123693519096
 30
0.0
  0
POINT
  5
1111
330
1107
100
AcDbEntity
  8
Defpoints
 62
     0
100
AcDbPoint
 10
560.4291352886311
 20
73.192274305703
 30
0.0
  0
ENDBLK
  5
1113
330
1107
100
AcDbEntity
  8
0
100
AcDbBlockEnd
  0
BLOCK
  5
114A
330
113F
100
AcDbEntity
  8
0
100
AcDbBlockBegin
  2
*D67
 70
     1
 10
0.0
 20
0.0
 30
0.0
  3
*D67
  1

  0
LINE
  5
1140
330
113F
100
AcDbEntity
  8
0
 62
     0
370
    -2
100
AcDbLine
 10
517.4291352886314
 20
193.7500000000004
 30
0.0
 11
517.4291352886314
 21
207.4614992318789
 31
0.0
  0
LINE
  5
1141
330
113F
100
AcDbEntity
  8
0
 62
     0
370
    -2
100
AcDbLine
 10
559.9291352886314
 20
193.7500000000004
 30
0.0
 11
559.9291352886314
 21
207.4614992318789
 31
0.0
  0
LINE
  5
1142
330
113F
100
AcDbEntity
  8
0
 62
     0
370
    -2
100
AcDbLine
 10
517.4291352886314
 20
201.4614992318789
 30
0.0
 11
524.160789193685
 21
201.4614992318789
 31
0.0
  0
LINE
  5
1143
330
113F
100
AcDbEntity
  8
0
 62
     0
370
    -2
100
AcDbLine
 10
559.9291352886314
 20
201.4614992318789
 30
0.0
 11
553.1974813835778
 21
201.4614992318789
 31
0.0
  0
INSERT
  5
1144
330
113F
100
AcDbEntity
  8
0
 62
     0
370
    -2
100
AcDbBlockReference
  2
_Oblique
 10
517.4291352886314
 20
201.4614992318789
 30
0.0
 41
5.279999999999999
 42
5.279999999999999
 43
5.279999999999999
 50
180.0
  0
INSERT
  5
1145
330
113F
100
AcDbEntity
  8
0
 62
     0
370
    -2
100
AcDbBlockReference
  2
_Oblique
 10
559.9291352886314
 20
201.4614992318789
 30
0.0
 41
5.279999999999999
 42
5.279999999999999
 43
5.279999999999999
  0
MTEXT
  5
1146
330
113F
100
AcDbEntity
  8
0
 62
     0
100
AcDbMText
 10
538.6791352886314
 20
201.4614992318789
 30
0.0
 40
5.279999999999999
 41
0.0
 46
0.0
 71
     5
 72
     1
  1
\A1;3'-6{\H1.000000x;\S1/2;}"
 73
     1
 44
1.0
  0
POINT
  5
1147
330
113F
100
AcDbEntity
  8
Defpoints
 62
     0
100
AcDbPoint
 10
517.4291352886314
 20
187.7500000000004
 30
0.0
  0
POINT
  5
1148
330
113F
100
AcDbEntity
  8
Defpoints
 62
     0
100
AcDbPoint
 10
559.9291352886314
 20
187.7500000000004
 30
0.0
  0
POINT
  5
1149
330
113F
100
AcDbEntity
  8
Defpoints
 62
     0
100
AcDbPoint
 10
559.9291352886314
 20
201.4614992318789
 30
0.0
  0
ENDBLK
  5
114B
330
113F
100
AcDbEntity
  8
0
100
AcDbBlockEnd
  0
BLOCK
  5
1157
330
114D
100
AcDbEntity
  8
0
100
AcDbBlockBegin
  2
*D68
 70
     1
 10
0.0
 20
0.0
 30
0.0
  3
*D68
  1

  0
LINE
  5
114E
330
114D
100
AcDbEntity
  8
0
 62
     0
370
    -2
100
AcDbLine
 10
559.9291352886314
 20
193.7500000000004
 30
0.0
 11
559.9291352886314
 21
207.4614992318789
 31
0.0
  0
LINE
  5
114F
330
114D
100
AcDbEntity
  8
0
 62
     0
370
    -2
100
AcDbLine
 10
559.9291352886314
 20
201.4614992318789
 30
0.0
 11
566.6607891936844
 21
201.4614992318789
 31
0.0
  0
LINE
  5
1150
330
114D
100
AcDbEntity
  8
0
 62
     0
370
    -2
100
AcDbLine
 10
602.4291352886303
 20
201.4614992318789
 30
0.0
 11
595.6974813835773
 21
201.4614992318789
 31
0.0
  0
INSERT
  5
1151
330
114D
100
AcDbEntity
  8
0
 62
     0
370
    -2
100
AcDbBlockReference
  2
_Oblique
 10
559.9291352886314
 20
201.4614992318789
 30
0.0
 41
5.279999999999999
 42
5.279999999999999
 43
5.279999999999999
 50
180.0
  0
INSERT
  5
1152
330
114D
100
AcDbEntity
  8
0
 62
     0
370
    -2
100
AcDbBlockReference
  2
_Oblique
 10
602.4291352886303
 20
201.4614992318789
 30
0.0
 41
5.279999999999999
 42
5.279999999999999
 43
5.279999999999999
  0
MTEXT
  5
1153
330
114D
100
AcDbEntity
  8
0
 62
     0
100
AcDbMText
 10
581.1791352886308
 20
201.4614992318789
 30
0.0
 40
5.279999999999999
 41
0.0
 46
0.0
 71
     5
 72
     1
  1
\A1;3'-6{\H1.000000x;\S1/2;}"
 73
     1
 44
1.0
  0
POINT
  5
1154
330
114D
100
AcDbEntity
  8
Defpoints
 62
     0
100
AcDbPoint
 10
559.9291352886314
 20
187.7500000000004
 30
0.0
  0
POINT
  5
1155
330
114D
100
AcDbEntity
  8
Defpoints
 62
     0
100
AcDbPoint
 10
602.4291352886303
 20
201.4614992318789
 30
0.0
  0
POINT
  5
1156
330
114D
100
AcDbEntity
  8
Defpoints
 62
     0
100
AcDbPoint
 10
602.4291352886303
 20
201.4614992318789
 30
0.0
  0
ENDBLK
  5
1158
330
114D
100
AcDbEntity
  8
0
100
AcDbBlockEnd
  0
BLOCK
  5
1168
330
115D
100
AcDbEntity
  8
0
100
AcDbBlockBegin
  2
*D69
 70
     1
 10
0.0
 20
0.0
 30
0.0
  3
*D69
  1

  0
LINE
  5
1281
330
115D
100
AcDbEntity
  8
0
 62
     0
370
    -2
100
AcDbLine
 10
794.0541352886303
 20
-108.0
 30
0.0
 11
794.0541352886303
 21
-182.5124865289267
 31
0.0
  0
LINE
  5
1282
330
115D
100
AcDbEntity
  8
0
 62
     0
370
    -2
100
AcDbLine
 10
698.0541352886303
 20
-108.0
 30
0.0
 11
698.0541352886303
 21
-182.5124865289267
 31
0.0
  0
LINE
  5
1283
330
115D
100
AcDbEntity
  8
0
 62
     0
370
    -2
100
AcDbLine
 10
794.0541352886303
 20
-176.5124865289267
 30
0.0
 11
754.2979331446793
 21
-176.5124865289267
 31
0.0
  0
LINE
  5
1284
330
115D
100
AcDbEntity
  8
0
 62
     0
370
    -2
100
AcDbLine
 10
698.0541352886303
 20
-176.5124865289267
 30
0.0
 11
737.8103374325813
 21
-176.5124865289267
 31
0.0
  0
INSERT
  5
1285
330
115D
100
AcDbEntity
  8
0
 62
     0
370
    -2
100
AcDbBlockReference
  2
_Oblique
 10
794.0541352886303
 20
-176.5124865289267
 30
0.0
 41
5.279999999999999
 42
5.279999999999999
 43
5.279999999999999
  0
INSERT
  5
1286
330
115D
100
AcDbEntity
  8
0
 62
     0
370
    -2
100
AcDbBlockReference
  2
_Oblique
 10
698.0541352886303
 20
-176.5124865289267
 30
0.0
 41
5.279999999999999
 42
5.279999999999999
 43
5.279999999999999
 50
180.0
  0
MTEXT
  5
1287
330
115D
100
AcDbEntity
  8
0
 62
     0
100
AcDbMText
 10
746.0541352886303
 20
-176.5124865289267
 30
0.0
 40
5.279999999999999
 41
0.0
 46
0.0
 71
     5
 72
     1
  1
\A1;8'
 73
     1
 44
1.0
  0
POINT
  5
1288
330
115D
100
AcDbEntity
  8
Defpoints
 62
     0
100
AcDbPoint
 10
794.0541352886303
 20
-102.0
 30
0.0
  0
POINT
  5
1289
330
115D
100
AcDbEntity
  8
Defpoints
 62
     0
100
AcDbPoint
 10
698.0541352886303
 20
-102.0
 30
0.0
  0
POINT
  5
128A
330
115D
100
AcDbEntity
  8
Defpoints
 62
     0
100
AcDbPoint
 10
698.0541352886303
 20
-176.5124865289267
 30
0.0
  0
ENDBLK
  5
1169
330
115D
100
AcDbEntity
  8
0
100
AcDbBlockEnd
  0
BLOCK
  5
1176
330
116B
100
AcDbEntity
  8
0
100
AcDbBlockBegin
  2
*D70
 70
     1
 10
0.0
 20
0.0
 30
0.0
  3
*D70
  1

  0
LINE
  5
124F
330
116B
100
AcDbEntity
  8
0
 62
     0
370
    -2
100
AcDbLine
 10
698.0541352886303
 20
-108.0
 30
0.0
 11
698.0541352886303
 21
-182.5124865289267
 31
0.0
  0
LINE
  5
1250
330
116B
100
AcDbEntity
  8
0
 62
     0
370
    -2
100
AcDbLine
 10
602.0541352886303
 20
-108.0
 30
0.0
 11
602.0541352886303
 21
-182.5124865289267
 31
0.0
  0
LINE
  5
1251
330
116B
100
AcDbEntity
  8
0
 62
     0
370
    -2
100
AcDbLine
 10
698.0541352886303
 20
-176.5124865289267
 30
0.0
 11
658.2979331446793
 21
-176.5124865289267
 31
0.0
  0
LINE
  5
1252
330
116B
100
AcDbEntity
  8
0
 62
     0
370
    -2
100
AcDbLine
 10
602.0541352886303
 20
-176.5124865289267
 30
0.0
 11
641.8103374325813
 21
-176.5124865289267
 31
0.0
  0
INSERT
  5
1253
330
116B
100
AcDbEntity
  8
0
 62
     0
370
    -2
100
AcDbBlockReference
  2
_Oblique
 10
698.0541352886303
 20
-176.5124865289267
 30
0.0
 41
5.279999999999999
 42
5.279999999999999
 43
5.279999999999999
  0
INSERT
  5
1254
330
116B
100
AcDbEntity
  8
0
 62
     0
370
    -2
100
AcDbBlockReference
  2
_Oblique
 10
602.0541352886303
 20
-176.5124865289267
 30
0.0
 41
5.279999999999999
 42
5.279999999999999
 43
5.279999999999999
 50
180.0
  0
MTEXT
  5
1255
330
116B
100
AcDbEntity
  8
0
 62
     0
100
AcDbMText
 10
650.0541352886303
 20
-176.5124865289267
 30
0.0
 40
5.279999999999999
 41
0.0
 46
0.0
 71
     5
 72
     1
  1
\A1;8'
 73
     1
 44
1.0
  0
POINT
  5
1256
330
116B
100
AcDbEntity
  8
Defpoints
 62
     0
100
AcDbPoint
 10
698.0541352886303
 20
-102.0
 30
0.0
  0
POINT
  5
1257
330
116B
100
AcDbEntity
  8
Defpoints
 62
     0
100
AcDbPoint
 10
602.0541352886303
 20
-102.0
 30
0.0
  0
POINT
  5
1258
330
116B
100
AcDbEntity
  8
Defpoints
 62
     0
100
AcDbPoint
 10
602.0541352886303
 20
-176.5124865289267
 30
0.0
  0
ENDBLK
  5
1177
330
116B
100
AcDbEntity
  8
0
100
AcDbBlockEnd
  0
BLOCK
  5
1184
330
1179
100
AcDbEntity
  8
0
100
AcDbBlockBegin
  2
*D71
 70
     1
 10
0.0
 20
0.0
 30
0.0
  3
*D71
  1

  0
LINE
  5
1259
330
1179
100
AcDbEntity
  8
0
 62
     0
370
    -2
100
AcDbLine
 10
602.0541352886303
 20
-108.0
 30
0.0
 11
602.0541352886303
 21
-182.5124865289267
 31
0.0
  0
LINE
  5
125A
330
1179
100
AcDbEntity
  8
0
 62
     0
370
    -2
100
AcDbLine
 10
566.0541352886303
 20
-96.0
 30
0.0
 11
566.0541352886303
 21
-182.5124865289267
 31
0.0
  0
LINE
  5
125B
330
1179
100
AcDbEntity
  8
0
 62
     0
370
    -2
100
AcDbLine
 10
602.0541352886303
 20
-176.5124865289267
 30
0.0
 11
592.2938902656593
 21
-176.5124865289267
 31
0.0
  0
LINE
  5
125C
330
1179
100
AcDbEntity
  8
0
 62
     0
370
    -2
100
AcDbLine
 10
566.0541352886303
 20
-176.5124865289267
 30
0.0
 11
575.8143803116012
 21
-176.5124865289267
 31
0.0
  0
INSERT
  5
125D
330
1179
100
AcDbEntity
  8
0
 62
     0
370
    -2
100
AcDbBlockReference
  2
_Oblique
 10
602.0541352886303
 20
-176.5124865289267
 30
0.0
 41
5.279999999999999
 42
5.279999999999999
 43
5.279999999999999
  0
INSERT
  5
125E
330
1179
100
AcDbEntity
  8
0
 62
     0
370
    -2
100
AcDbBlockReference
  2
_Oblique
 10
566.0541352886303
 20
-176.5124865289267
 30
0.0
 41
5.279999999999999
 42
5.279999999999999
 43
5.279999999999999
 50
180.0
  0
MTEXT
  5
125F
330
1179
100
AcDbEntity
  8
0
 62
     0
100
AcDbMText
 10
584.0541352886303
 20
-176.5124865289267
 30
0.0
 40
5.279999999999999
 41
0.0
 46
0.0
 71
     5
 72
     1
  1
\A1;3'
 73
     1
 44
1.0
  0
POINT
  5
1260
330
1179
100
AcDbEntity
  8
Defpoints
 62
     0
100
AcDbPoint
 10
602.0541352886303
 20
-102.0
 30
0.0
  0
POINT
  5
1261
330
1179
100
AcDbEntity
  8
Defpoints
 62
     0
100
AcDbPoint
 10
566.0541352886303
 20
-90.0
 30
0.0
  0
POINT
  5
1262
330
1179
100
AcDbEntity
  8
Defpoints
 62
     0
100
AcDbPoint
 10
566.0541352886303
 20
-176.5124865289267
 30
0.0
  0
ENDBLK
  5
1185
330
1179
100
AcDbEntity
  8
0
100
AcDbBlockEnd
  0
BLOCK
  5
1192
330
1187
100
AcDbEntity
  8
0
100
AcDbBlockBegin
  2
*D72
 70
     1
 10
0.0
 20
0.0
 30
0.0
  3
*D72
  1

  0
LINE
  5
1277
330
1187
100
AcDbEntity
  8
0
 62
     0
370
    -2
100
AcDbLine
 10
566.0541352886303
 20
-96.0
 30
0.0
 11
566.0541352886303
 21
-182.5124865289267
 31
0.0
  0
LINE
  5
1278
330
1187
100
AcDbEntity
  8
0
 62
     0
370
    -2
100
AcDbLine
 10
494.0541352886303
 20
-96.0
 30
0.0
 11
494.0541352886303
 21
-182.5124865289267
 31
0.0
  0
LINE
  5
1279
330
1187
100
AcDbEntity
  8
0
 62
     0
370
    -2
100
AcDbLine
 10
566.0541352886303
 20
-176.5124865289267
 30
0.0
 11
538.2251613223209
 21
-176.5124865289267
 31
0.0
  0
LINE
  5
127A
330
1187
100
AcDbEntity
  8
0
 62
     0
370
    -2
100
AcDbLine
 10
494.0541352886303
 20
-176.5124865289267
 30
0.0
 11
521.8831092549397
 21
-176.5124865289267
 31
0.0
  0
INSERT
  5
127B
330
1187
100
AcDbEntity
  8
0
 62
     0
370
    -2
100
AcDbBlockReference
  2
_Oblique
 10
566.0541352886303
 20
-176.5124865289267
 30
0.0
 41
5.279999999999999
 42
5.279999999999999
 43
5.279999999999999
  0
INSERT
  5
127C
330
1187
100
AcDbEntity
  8
0
 62
     0
370
    -2
100
AcDbBlockReference
  2
_Oblique
 10
494.0541352886303
 20
-176.5124865289267
 30
0.0
 41
5.279999999999999
 42
5.279999999999999
 43
5.279999999999999
 50
180.0
  0
MTEXT
  5
127D
330
1187
100
AcDbEntity
  8
0
 62
     0
100
AcDbMText
 10
530.0541352886303
 20
-176.5124865289267
 30
0.0
 40
5.279999999999999
 41
0.0
 46
0.0
 71
     5
 72
     1
  1
\A1;6'
 73
     1
 44
1.0
  0
POINT
  5
127E
330
1187
100
AcDbEntity
  8
Defpoints
 62
     0
100
AcDbPoint
 10
566.0541352886303
 20
-90.0
 30
0.0
  0
POINT
  5
127F
330
1187
100
AcDbEntity
  8
Defpoints
 62
     0
100
AcDbPoint
 10
494.0541352886303
 20
-90.0
 30
0.0
  0
POINT
  5
1280
330
1187
100
AcDbEntity
  8
Defpoints
 62
     0
100
AcDbPoint
 10
494.0541352886303
 20
-176.5124865289267
 30
0.0
  0
ENDBLK
  5
1193
330
1187
100
AcDbEntity
  8
0
100
AcDbBlockEnd
  0
BLOCK
  5
11A0
330
1195
100
AcDbEntity
  8
0
100
AcDbBlockBegin
  2
*D73
 70
     1
 10
0.0
 20
0.0
 30
0.0
  3
*D73
  1

  0
LINE
  5
1263
330
1195
100
AcDbEntity
  8
0
 62
     0
370
    -2
100
AcDbLine
 10
494.0541352886303
 20
-96.0
 30
0.0
 11
494.0541352886303
 21
-182.5124865289267
 31
0.0
  0
LINE
  5
1264
330
1195
100
AcDbEntity
  8
0
 62
     0
370
    -2
100
AcDbLine
 10
458.0541352886303
 20
-96.0
 30
0.0
 11
458.0541352886303
 21
-182.5124865289267
 31
0.0
  0
LINE
  5
1265
330
1195
100
AcDbEntity
  8
0
 62
     0
370
    -2
100
AcDbLine
 10
494.0541352886303
 20
-176.5124865289267
 30
0.0
 11
484.2938902656594
 21
-176.5124865289267
 31
0.0
  0
LINE
  5
1266
330
1195
100
AcDbEntity
  8
0
 62
     0
370
    -2
100
AcDbLine
 10
458.0541352886303
 20
-176.5124865289267
 30
0.0
 11
467.8143803116012
 21
-176.5124865289267
 31
0.0
  0
INSERT
  5
1267
330
1195
100
AcDbEntity
  8
0
 62
     0
370
    -2
100
AcDbBlockReference
  2
_Oblique
 10
494.0541352886303
 20
-176.5124865289267
 30
0.0
 41
5.279999999999999
 42
5.279999999999999
 43
5.279999999999999
  0
INSERT
  5
1268
330
1195
100
AcDbEntity
  8
0
 62
     0
370
    -2
100
AcDbBlockReference
  2
_Oblique
 10
458.0541352886303
 20
-176.5124865289267
 30
0.0
 41
5.279999999999999
 42
5.279999999999999
 43
5.279999999999999
 50
180.0
  0
MTEXT
  5
1269
330
1195
100
AcDbEntity
  8
0
 62
     0
100
AcDbMText
 10
476.0541352886303
 20
-176.5124865289267
 30
0.0
 40
5.279999999999999
 41
0.0
 46
0.0
 71
     5
 72
     1
  1
\A1;3'
 73
     1
 44
1.0
  0
POINT
  5
126A
330
1195
100
AcDbEntity
  8
Defpoints
 62
     0
100
AcDbPoint
 10
494.0541352886303
 20
-90.0
 30
0.0
  0
POINT
  5
126B
330
1195
100
AcDbEntity
  8
Defpoints
 62
     0
100
AcDbPoint
 10
458.0541352886303
 20
-90.0
 30
0.0
  0
POINT
  5
126C
330
1195
100
AcDbEntity
  8
Defpoints
 62
     0
100
AcDbPoint
 10
458.0541352886303
 20
-176.5124865289267
 30
0.0
  0
ENDBLK
  5
11A1
330
1195
100
AcDbEntity
  8
0
100
AcDbBlockEnd
  0
BLOCK
  5
11AE
330
11A3
100
AcDbEntity
  8
0
100
AcDbBlockBegin
  2
*D74
 70
     1
 10
0.0
 20
0.0
 30
0.0
  3
*D74
  1

  0
LINE
  5
126D
330
11A3
100
AcDbEntity
  8
0
 62
     0
370
    -2
100
AcDbLine
 10
458.0541352886303
 20
-96.0
 30
0.0
 11
458.0541352886303
 21
-182.5124865289267
 31
0.0
  0
LINE
  5
126E
330
11A3
100
AcDbEntity
  8
0
 62
     0
370
    -2
100
AcDbLine
 10
362.0541352886303
 20
-108.0
 30
0.0
 11
362.0541352886303
 21
-182.5124865289267
 31
0.0
  0
LINE
  5
126F
330
11A3
100
AcDbEntity
  8
0
 62
     0
370
    -2
100
AcDbLine
 10
458.0541352886303
 20
-176.5124865289267
 30
0.0
 11
418.2979331446793
 21
-176.5124865289267
 31
0.0
  0
LINE
  5
1270
330
11A3
100
AcDbEntity
  8
0
 62
     0
370
    -2
100
AcDbLine
 10
362.0541352886303
 20
-176.5124865289267
 30
0.0
 11
401.8103374325813
 21
-176.5124865289267
 31
0.0
  0
INSERT
  5
1271
330
11A3
100
AcDbEntity
  8
0
 62
     0
370
    -2
100
AcDbBlockReference
  2
_Oblique
 10
458.0541352886303
 20
-176.5124865289267
 30
0.0
 41
5.279999999999999
 42
5.279999999999999
 43
5.279999999999999
  0
INSERT
  5
1272
330
11A3
100
AcDbEntity
  8
0
 62
     0
370
    -2
100
AcDbBlockReference
  2
_Oblique
 10
362.0541352886303
 20
-176.5124865289267
 30
0.0
 41
5.279999999999999
 42
5.279999999999999
 43
5.279999999999999
 50
180.0
  0
MTEXT
  5
1273
330
11A3
100
AcDbEntity
  8
0
 62
     0
100
AcDbMText
 10
410.0541352886303
 20
-176.5124865289267
 30
0.0
 40
5.279999999999999
 41
0.0
 46
0.0
 71
     5
 72
     1
  1
\A1;8'
 73
     1
 44
1.0
  0
POINT
  5
1274
330
11A3
100
AcDbEntity
  8
Defpoints
 62
     0
100
AcDbPoint
 10
458.0541352886303
 20
-90.0
 30
0.0
  0
POINT
  5
1275
330
11A3
100
AcDbEntity
  8
Defpoints
 62
     0
100
AcDbPoint
 10
362.0541352886303
 20
-102.0
 30
0.0
  0
POINT
  5
1276
330
11A3
100
AcDbEntity
  8
Defpoints
 62
     0
100
AcDbPoint
 10
362.0541352886303
 20
-176.5124865289267
 30
0.0
  0
ENDBLK
  5
11AF
330
11A3
100
AcDbEntity
  8
0
100
AcDbBlockEnd
  0
BLOCK
  5
11BC
330
11B1
100
AcDbEntity
  8
0
100
AcDbBlockBegin
  2
*D75
 70
     1
 10
0.0
 20
0.0
 30
0.0
  3
*D75
  1

  0
LINE
  5
123B
330
11B1
100
AcDbEntity
  8
0
 62
     0
370
    -2
100
AcDbLine
 10
362.0541352886303
 20
-108.0
 30
0.0
 11
362.0541352886303
 21
-182.5124865289267
 31
0.0
  0
LINE
  5
123C
330
11B1
100
AcDbEntity
  8
0
 62
     0
370
    -2
100
AcDbLine
 10
266.0541352886303
 20
-108.0
 30
0.0
 11
266.0541352886303
 21
-182.5124865289267
 31
0.0
  0
LINE
  5
123D
330
11B1
100
AcDbEntity
  8
0
 62
     0
370
    -2
100
AcDbLine
 10
362.0541352886303
 20
-176.5124865289267
 30
0.0
 11
322.2979331446793
 21
-176.5124865289267
 31
0.0
  0
LINE
  5
123E
330
11B1
100
AcDbEntity
  8
0
 62
     0
370
    -2
100
AcDbLine
 10
266.0541352886303
 20
-176.5124865289267
 30
0.0
 11
305.8103374325813
 21
-176.5124865289267
 31
0.0
  0
INSERT
  5
123F
330
11B1
100
AcDbEntity
  8
0
 62
     0
370
    -2
100
AcDbBlockReference
  2
_Oblique
 10
362.0541352886303
 20
-176.5124865289267
 30
0.0
 41
5.279999999999999
 42
5.279999999999999
 43
5.279999999999999
  0
INSERT
  5
1240
330
11B1
100
AcDbEntity
  8
0
 62
     0
370
    -2
100
AcDbBlockReference
  2
_Oblique
 10
266.0541352886303
 20
-176.5124865289267
 30
0.0
 41
5.279999999999999
 42
5.279999999999999
 43
5.279999999999999
 50
180.0
  0
MTEXT
  5
1241
330
11B1
100
AcDbEntity
  8
0
 62
     0
100
AcDbMText
 10
314.0541352886303
 20
-176.5124865289267
 30
0.0
 40
5.279999999999999
 41
0.0
 46
0.0
 71
     5
 72
     1
  1
\A1;8'
 73
     1
 44
1.0
  0
POINT
  5
1242
330
11B1
100
AcDbEntity
  8
Defpoints
 62
     0
100
AcDbPoint
 10
362.0541352886303
 20
-102.0
 30
0.0
  0
POINT
  5
1243
330
11B1
100
AcDbEntity
  8
Defpoints
 62
     0
100
AcDbPoint
 10
266.0541352886303
 20
-102.0
 30
0.0
  0
POINT
  5
1244
330
11B1
100
AcDbEntity
  8
Defpoints
 62
     0
100
AcDbPoint
 10
266.0541352886303
 20
-176.5124865289267
 30
0.0
  0
ENDBLK
  5
11BD
330
11B1
100
AcDbEntity
  8
0
100
AcDbBlockEnd
  0
BLOCK
  5
11CA
330
11BF
100
AcDbEntity
  8
0
100
AcDbBlockBegin
  2
*D76
 70
     1
 10
0.0
 20
0.0
 30
0.0
  3
*D76
  1

  0
LINE
  5
1245
330
11BF
100
AcDbEntity
  8
0
 62
     0
370
    -2
100
AcDbLine
 10
266.0541352886303
 20
-108.0
 30
0.0
 11
266.0541352886303
 21
-182.5124865289267
 31
0.0
  0
LINE
  5
1246
330
11BF
100
AcDbEntity
  8
0
 62
     0
370
    -2
100
AcDbLine
 10
170.0541352886303
 20
-108.0
 30
0.0
 11
170.0541352886303
 21
-182.5124865289267
 31
0.0
  0
LINE
  5
1247
330
11BF
100
AcDbEntity
  8
0
 62
     0
370
    -2
100
AcDbLine
 10
266.0541352886303
 20
-176.5124865289267
 30
0.0
 11
226.2979331446793
 21
-176.5124865289267
 31
0.0
  0
LINE
  5
1248
330
11BF
100
AcDbEntity
  8
0
 62
     0
370
    -2
100
AcDbLine
 10
170.0541352886303
 20
-176.5124865289267
 30
0.0
 11
209.8103374325813
 21
-176.5124865289267
 31
0.0
  0
INSERT
  5
1249
330
11BF
100
AcDbEntity
  8
0
 62
     0
370
    -2
100
AcDbBlockReference
  2
_Oblique
 10
266.0541352886303
 20
-176.5124865289267
 30
0.0
 41
5.279999999999999
 42
5.279999999999999
 43
5.279999999999999
  0
INSERT
  5
124A
330
11BF
100
AcDbEntity
  8
0
 62
     0
370
    -2
100
AcDbBlockReference
  2
_Oblique
 10
170.0541352886303
 20
-176.5124865289267
 30
0.0
 41
5.279999999999999
 42
5.279999999999999
 43
5.279999999999999
 50
180.0
  0
MTEXT
  5
124B
330
11BF
100
AcDbEntity
  8
0
 62
     0
100
AcDbMText
 10
218.0541352886303
 20
-176.5124865289267
 30
0.0
 40
5.279999999999999
 41
0.0
 46
0.0
 71
     5
 72
     1
  1
\A1;8'
 73
     1
 44
1.0
  0
POINT
  5
124C
330
11BF
100
AcDbEntity
  8
Defpoints
 62
     0
100
AcDbPoint
 10
266.0541352886303
 20
-102.0
 30
0.0
  0
POINT
  5
124D
330
11BF
100
AcDbEntity
  8
Defpoints
 62
     0
100
AcDbPoint
 10
170.0541352886303
 20
-102.0
 30
0.0
  0
POINT
  5
124E
330
11BF
100
AcDbEntity
  8
Defpoints
 62
     0
100
AcDbPoint
 10
170.0541352886303
 20
-176.5124865289267
 30
0.0
  0
ENDBLK
  5
11CB
330
11BF
100
AcDbEntity
  8
0
100
AcDbBlockEnd
  0
BLOCK
  5
12A4
330
129A
100
AcDbEntity
  8
0
100
AcDbBlockBegin
  2
*D80
 70
     1
 10
0.0
 20
0.0
 30
0.0
  3
*D80
  1

  0
LINE
  5
129B
330
129A
100
AcDbEntity
  8
0
 62
     0
370
    -2
100
AcDbLine
 10
502.0541352886303
 20
-90.0
 30
0.0
 11
527.5081423644224
 21
-90.0
 31
0.0
  0
LINE
  5
129C
330
129A
100
AcDbEntity
  8
0
 62
     0
370
    -2
100
AcDbLine
 10
521.5081423644224
 20
-90.0
 30
0.0
 11
521.5081423644224
 21
-102.3236140888208
 31
0.0
  0
LINE
  5
129D
330
129A
100
AcDbEntity
  8
0
 62
     0
370
    -2
100
AcDbLine
 10
521.5081423644224
 20
-132.0
 30
0.0
 11
521.5081423644224
 21
-119.6763859111792
 31
0.0
  0
INSERT
  5
129E
330
129A
100
AcDbEntity
  8
0
 62
     0
370
    -2
100
AcDbBlockReference
  2
_Oblique
 10
521.5081423644224
 20
-90.0
 30
0.0
 41
5.279999999999999
 42
5.279999999999999
 43
5.279999999999999
 50
90.0
  0
INSERT
  5
129F
330
129A
100
AcDbEntity
  8
0
 62
     0
370
    -2
100
AcDbBlockReference
  2
_Oblique
 10
521.5081423644224
 20
-132.0
 30
0.0
 41
5.279999999999999
 42
5.279999999999999
 43
5.279999999999999
 50
270.0
  0
MTEXT
  5
12A0
330
129A
100
AcDbEntity
  8
0
 62
     0
100
AcDbMText
 10
521.5081423644224
 20
-110.9999999999999
 30
0.0
 40
5.279999999999999
 41
0.0
 46
0.0
 71
     5
 72
     1
  1
\A1;3'-6"
 73
     1
 44
1.0
  0
POINT
  5
12A1
330
129A
100
AcDbEntity
  8
Defpoints
 62
     0
100
AcDbPoint
 10
496.0541352886303
 20
-90.0
 30
0.0
  0
POINT
  5
12A2
330
129A
100
AcDbEntity
  8
Defpoints
 62
     0
100
AcDbPoint
 10
521.5081423644224
 20
-132.0
 30
0.0
  0
POINT
  5
12A3
330
129A
100
AcDbEntity
  8
Defpoints
 62
     0
100
AcDbPoint
 10
521.5081423644224
 20
-132.0
 30
0.0
  0
ENDBLK
  5
12A5
330
129A
100
AcDbEntity
  8
0
100
AcDbBlockEnd
  0
BLOCK
  5
12DB
330
12D0
100
AcDbEntity
  8
0
100
AcDbBlockBegin
  2
*D81
 70
     1
 10
0.0
 20
0.0
 30
0.0
  3
*D81
  1

  0
LINE
  5
138A
330
12D0
100
AcDbEntity
  8
0
 62
     0
370
    -2
100
AcDbLine
 10
158.0541352886303
 20
-95.99999999999999
 30
0.0
 11
41.24780892552278
 21
-95.99999999999996
 31
0.0
  0
LINE
  5
138B
330
12D0
100
AcDbEntity
  8
0
 62
     0
370
    -2
100
AcDbLine
 10
158.0541352886303
 20
0.0000000000000017
 30
0.0
 11
41.2478089255228
 21
0.0000000000000348
 31
0.0
  0
LINE
  5
138C
330
12D0
100
AcDbEntity
  8
0
 62
     0
370
    -2
100
AcDbLine
 10
47.24780892552278
 20
-95.99999999999996
 30
0.0
 11
47.24780892552279
 21
-56.67638591117915
 31
0.0
  0
LINE
  5
138D
330
12D0
100
AcDbEntity
  8
0
 62
     0
370
    -2
100
AcDbLine
 10
47.2478089255228
 20
0.0000000000000331
 30
0.0
 11
47.2478089255228
 21
-39.3236140888208
 31
0.0
  0
INSERT
  5
138E
330
12D0
100
AcDbEntity
  8
0
 62
     0
370
    -2
100
AcDbBlockReference
  2
_Oblique
 10
47.24780892552278
 20
-95.99999999999996
 30
0.0
 41
5.279999999999999
 42
5.279999999999999
 43
5.279999999999999
 50
270.0
  0
INSERT
  5
138F
330
12D0
100
AcDbEntity
  8
0
 62
     0
370
    -2
100
AcDbBlockReference
  2
_Oblique
 10
47.2478089255228
 20
0.0000000000000331
 30
0.0
 41
5.279999999999999
 42
5.279999999999999
 43
5.279999999999999
 50
90.0
  0
MTEXT
  5
1390
330
12D0
100
AcDbEntity
  8
0
 62
     0
100
AcDbMText
 10
47.2478089255228
 20
-47.99999999999996
 30
0.0
 40
5.279999999999999
 41
0.0
 46
0.0
 71
     5
 72
     1
  1
\A1;8'
 73
     1
 44
1.0
  0
POINT
  5
1391
330
12D0
100
AcDbEntity
  8
Defpoints
 62
     0
100
AcDbPoint
 10
164.0541352886303
 20
-96.0
 30
0.0
  0
POINT
  5
1392
330
12D0
100
AcDbEntity
  8
Defpoints
 62
     0
100
AcDbPoint
 10
164.0541352886303
 20
0.0
 30
0.0
  0
POINT
  5
1393
330
12D0
100
AcDbEntity
  8
Defpoints
 62
     0
100
AcDbPoint
 10
47.2478089255228
 20
0.0000000000000331
 30
0.0
  0
ENDBLK
  5
12DC
330
12D0
100
AcDbEntity
  8
0
100
AcDbBlockEnd
  0
BLOCK
  5
12E9
330
12DE
100
AcDbEntity
  8
0
100
AcDbBlockBegin
  2
*D82
 70
     1
 10
0.0
 20
0.0
 30
0.0
  3
*D82
  1

  0
LINE
  5
13AA
330
12DE
100
AcDbEntity
  8
0
 62
     0
370
    -2
100
AcDbLine
 10
158.0541352886303
 20
0.0000000000000017
 30
0.0
 11
43.88780892552279
 21
0.000000000000034
 31
0.0
  0
LINE
  5
13AB
330
12DE
100
AcDbEntity
  8
0
 62
     0
370
    -2
100
AcDbLine
 10
158.0541352886303
 20
96.00000000000001
 30
0.0
 11
43.88780892552281
 21
96.00000000000004
 31
0.0
  0
LINE
  5
13AC
330
12DE
100
AcDbEntity
  8
0
 62
     0
370
    -2
100
AcDbLine
 10
49.88780892552278
 20
0.0000000000000323
 30
0.0
 11
49.88780892552279
 21
39.32361408882085
 31
0.0
  0
LINE
  5
13AD
330
12DE
100
AcDbEntity
  8
0
 62
     0
370
    -2
100
AcDbLine
 10
49.8878089255228
 20
96.00000000000003
 30
0.0
 11
49.8878089255228
 21
56.6763859111792
 31
0.0
  0
INSERT
  5
13AE
330
12DE
100
AcDbEntity
  8
0
 62
     0
370
    -2
100
AcDbBlockReference
  2
_Oblique
 10
49.88780892552278
 20
0.0000000000000323
 30
0.0
 41
5.279999999999999
 42
5.279999999999999
 43
5.279999999999999
 50
270.0
  0
INSERT
  5
13AF
330
12DE
100
AcDbEntity
  8
0
 62
     0
370
    -2
100
AcDbBlockReference
  2
_Oblique
 10
49.8878089255228
 20
96.00000000000003
 30
0.0
 41
5.279999999999999
 42
5.279999999999999
 43
5.279999999999999
 50
90.0
  0
MTEXT
  5
13B0
330
12DE
100
AcDbEntity
  8
0
 62
     0
100
AcDbMText
 10
49.88780892552278
 20
48.00000000000004
 30
0.0
 40
5.279999999999999
 41
0.0
 46
0.0
 71
     5
 72
     1
  1
\A1;8'
 73
     1
 44
1.0
  0
POINT
  5
13B1
330
12DE
100
AcDbEntity
  8
Defpoints
 62
     0
100
AcDbPoint
 10
164.0541352886303
 20
0.0
 30
0.0
  0
POINT
  5
13B2
330
12DE
100
AcDbEntity
  8
Defpoints
 62
     0
100
AcDbPoint
 10
164.0541352886303
 20
96.0
 30
0.0
  0
POINT
  5
13B3
330
12DE
100
AcDbEntity
  8
Defpoints
 62
     0
100
AcDbPoint
 10
49.8878089255228
 20
96.00000000000003
 30
0.0
  0
ENDBLK
  5
12EA
330
12DE
100
AcDbEntity
  8
0
100
AcDbBlockEnd
  0
BLOCK
  5
12F7
330
12EC
100
AcDbEntity
  8
0
100
AcDbBlockBegin
  2
*D83
 70
     1
 10
0.0
 20
0.0
 30
0.0
  3
*D83
  1

  0
LINE
  5
13BE
330
12EC
100
AcDbEntity
  8
0
 62
     0
370
    -2
100
AcDbLine
 10
158.0541352886303
 20
96.00000000000001
 30
0.0
 11
43.88780892552278
 21
96.00000000000004
 31
0.0
  0
LINE
  5
13BF
330
12EC
100
AcDbEntity
  8
0
 62
     0
370
    -2
100
AcDbLine
 10
158.0541352886303
 20
192.0
 30
0.0
 11
43.8878089255228
 21
192.0
 31
0.0
  0
LINE
  5
13C0
330
12EC
100
AcDbEntity
  8
0
 62
     0
370
    -2
100
AcDbLine
 10
49.88780892552278
 20
96.00000000000003
 30
0.0
 11
49.88780892552279
 21
135.3236140888208
 31
0.0
  0
LINE
  5
13C1
330
12EC
100
AcDbEntity
  8
0
 62
     0
370
    -2
100
AcDbLine
 10
49.8878089255228
 20
192.0
 30
0.0
 11
49.8878089255228
 21
152.6763859111792
 31
0.0
  0
INSERT
  5
13C2
330
12EC
100
AcDbEntity
  8
0
 62
     0
370
    -2
100
AcDbBlockReference
  2
_Oblique
 10
49.88780892552278
 20
96.00000000000003
 30
0.0
 41
5.279999999999999
 42
5.279999999999999
 43
5.279999999999999
 50
270.0
  0
INSERT
  5
13C3
330
12EC
100
AcDbEntity
  8
0
 62
     0
370
    -2
100
AcDbBlockReference
  2
_Oblique
 10
49.8878089255228
 20
192.0
 30
0.0
 41
5.279999999999999
 42
5.279999999999999
 43
5.279999999999999
 50
90.0
  0
MTEXT
  5
13C4
330
12EC
100
AcDbEntity
  8
0
 62
     0
100
AcDbMText
 10
49.88780892552277
 20
144.0
 30
0.0
 40
5.279999999999999
 41
0.0
 46
0.0
 71
     5
 72
     1
  1
\A1;8'
 73
     1
 44
1.0
  0
POINT
  5
13C5
330
12EC
100
AcDbEntity
  8
Defpoints
 62
     0
100
AcDbPoint
 10
164.0541352886303
 20
96.0
 30
0.0
  0
POINT
  5
13C6
330
12EC
100
AcDbEntity
  8
Defpoints
 62
     0
100
AcDbPoint
 10
164.0541352886303
 20
192.0
 30
0.0
  0
POINT
  5
13C7
330
12EC
100
AcDbEntity
  8
Defpoints
 62
     0
100
AcDbPoint
 10
49.8878089255228
 20
192.0
 30
0.0
  0
ENDBLK
  5
12F8
330
12EC
100
AcDbEntity
  8
0
100
AcDbBlockEnd
  0
BLOCK
  5
1305
330
12FA
100
AcDbEntity
  8
0
100
AcDbBlockBegin
  2
*D84
 70
     1
 10
0.0
 20
0.0
 30
0.0
  3
*D84
  1

  0
LINE
  5
13C8
330
12FA
100
AcDbEntity
  8
0
 62
     0
370
    -2
100
AcDbLine
 10
158.0541352886303
 20
192.0
 30
0.0
 11
43.88780892552278
 21
192.0
 31
0.0
  0
LINE
  5
13C9
330
12FA
100
AcDbEntity
  8
0
 62
     0
370
    -2
100
AcDbLine
 10
158.0541352886303
 20
288.0
 30
0.0
 11
43.8878089255228
 21
288.0000000000001
 31
0.0
  0
LINE
  5
13CA
330
12FA
100
AcDbEntity
  8
0
 62
     0
370
    -2
100
AcDbLine
 10
49.88780892552278
 20
192.0
 30
0.0
 11
49.88780892552279
 21
231.3236140888209
 31
0.0
  0
LINE
  5
13CB
330
12FA
100
AcDbEntity
  8
0
 62
     0
370
    -2
100
AcDbLine
 10
49.8878089255228
 20
288.0000000000001
 30
0.0
 11
49.8878089255228
 21
248.6763859111792
 31
0.0
  0
INSERT
  5
13CC
330
12FA
100
AcDbEntity
  8
0
 62
     0
370
    -2
100
AcDbBlockReference
  2
_Oblique
 10
49.88780892552278
 20
192.0
 30
0.0
 41
5.279999999999999
 42
5.279999999999999
 43
5.279999999999999
 50
270.0
  0
INSERT
  5
13CD
330
12FA
100
AcDbEntity
  8
0
 62
     0
370
    -2
100
AcDbBlockReference
  2
_Oblique
 10
49.8878089255228
 20
288.0000000000001
 30
0.0
 41
5.279999999999999
 42
5.279999999999999
 43
5.279999999999999
 50
90.0
  0
MTEXT
  5
13CE
330
12FA
100
AcDbEntity
  8
0
 62
     0
100
AcDbMText
 10
49.88780892552276
 20
240.0000000000001
 30
0.0
 40
5.279999999999999
 41
0.0
 46
0.0
 71
     5
 72
     1
  1
\A1;8'
 73
     1
 44
1.0
  0
POINT
  5
13CF
330
12FA
100
AcDbEntity
  8
Defpoints
 62
     0
100
AcDbPoint
 10
164.0541352886303
 20
192.0
 30
0.0
  0
POINT
  5
13D0
330
12FA
100
AcDbEntity
  8
Defpoints
 62
     0
100
AcDbPoint
 10
164.0541352886303
 20
288.0
 30
0.0
  0
POINT
  5
13D1
330
12FA
100
AcDbEntity
  8
Defpoints
 62
     0
100
AcDbPoint
 10
49.8878089255228
 20
288.0000000000001
 30
0.0
  0
ENDBLK
  5
1306
330
12FA
100
AcDbEntity
  8
0
100
AcDbBlockEnd
  0
BLOCK
  5
1313
330
1308
100
AcDbEntity
  8
0
100
AcDbBlockBegin
  2
*D85
 70
     1
 10
0.0
 20
0.0
 30
0.0
  3
*D85
  1

  0
LINE
  5
13D2
330
1308
100
AcDbEntity
  8
0
 62
     0
370
    -2
100
AcDbLine
 10
158.0541352886303
 20
288.0
 30
0.0
 11
43.88780892552278
 21
288.0000000000001
 31
0.0
  0
LINE
  5
13D3
330
1308
100
AcDbEntity
  8
0
 62
     0
370
    -2
100
AcDbLine
 10
158.0541352886303
 20
384.0
 30
0.0
 11
43.8878089255228
 21
384.0000000000001
 31
0.0
  0
LINE
  5
13D4
330
1308
100
AcDbEntity
  8
0
 62
     0
370
    -2
100
AcDbLine
 10
49.88780892552278
 20
288.0000000000001
 30
0.0
 11
49.88780892552279
 21
327.3236140888209
 31
0.0
  0
LINE
  5
13D5
330
1308
100
AcDbEntity
  8
0
 62
     0
370
    -2
100
AcDbLine
 10
49.8878089255228
 20
384.0000000000001
 30
0.0
 11
49.8878089255228
 21
344.6763859111792
 31
0.0
  0
INSERT
  5
13D6
330
1308
100
AcDbEntity
  8
0
 62
     0
370
    -2
100
AcDbBlockReference
  2
_Oblique
 10
49.88780892552278
 20
288.0000000000001
 30
0.0
 41
5.279999999999999
 42
5.279999999999999
 43
5.279999999999999
 50
270.0
  0
INSERT
  5
13D7
330
1308
100
AcDbEntity
  8
0
 62
     0
370
    -2
100
AcDbBlockReference
  2
_Oblique
 10
49.8878089255228
 20
384.0000000000001
 30
0.0
 41
5.279999999999999
 42
5.279999999999999
 43
5.279999999999999
 50
90.0
  0
MTEXT
  5
13D8
330
1308
100
AcDbEntity
  8
0
 62
     0
100
AcDbMText
 10
49.88780892552274
 20
336.0000000000001
 30
0.0
 40
5.279999999999999
 41
0.0
 46
0.0
 71
     5
 72
     1
  1
\A1;8'
 73
     1
 44
1.0
  0
POINT
  5
13D9
330
1308
100
AcDbEntity
  8
Defpoints
 62
     0
100
AcDbPoint
 10
164.0541352886303
 20
288.0
 30
0.0
  0
POINT
  5
13DA
330
1308
100
AcDbEntity
  8
Defpoints
 62
     0
100
AcDbPoint
 10
164.0541352886303
 20
384.0
 30
0.0
  0
POINT
  5
13DB
330
1308
100
AcDbEntity
  8
Defpoints
 62
     0
100
AcDbPoint
 10
49.8878089255228
 20
384.0000000000001
 30
0.0
  0
ENDBLK
  5
1314
330
1308
100
AcDbEntity
  8
0
100
AcDbBlockEnd
  0
BLOCK
  5
1321
330
1316
100
AcDbEntity
  8
0
100
AcDbBlockBegin
  2
*D86
 70
     1
 10
0.0
 20
0.0
 30
0.0
  3
*D86
  1

  0
LINE
  5
13DC
330
1316
100
AcDbEntity
  8
0
 62
     0
370
    -2
100
AcDbLine
 10
158.0541352886303
 20
384.0
 30
0.0
 11
43.88780892552279
 21
384.0000000000001
 31
0.0
  0
LINE
  5
13DD
330
1316
100
AcDbEntity
  8
0
 62
     0
370
    -2
100
AcDbLine
 10
158.0541352886303
 20
408.0
 30
0.0
 11
43.8878089255228
 21
408.0000000000001
 31
0.0
  0
LINE
  5
13DE
330
1316
100
AcDbEntity
  8
0
 62
     0
370
    -2
100
AcDbLine
 10
49.8878089255228
 20
384.0000000000001
 30
0.0
 11
49.8878089255228
 21
378.7200000000001
 31
0.0
  0
LINE
  5
13DF
330
1316
100
AcDbEntity
  8
0
 62
     0
370
    -2
100
AcDbLine
 10
49.8878089255228
 20
408.0000000000001
 30
0.0
 11
49.8878089255228
 21
413.28
 31
0.0
  0
INSERT
  5
13E0
330
1316
100
AcDbEntity
  8
0
 62
     0
370
    -2
100
AcDbBlockReference
  2
_Oblique
 10
49.8878089255228
 20
384.0000000000001
 30
0.0
 41
5.279999999999999
 42
5.279999999999999
 43
5.279999999999999
 50
90.0
  0
INSERT
  5
13E1
330
1316
100
AcDbEntity
  8
0
 62
     0
370
    -2
100
AcDbBlockReference
  2
_Oblique
 10
49.8878089255228
 20
408.0000000000001
 30
0.0
 41
5.279999999999999
 42
5.279999999999999
 43
5.279999999999999
 50
270.0
  0
MTEXT
  5
13E2
330
1316
100
AcDbEntity
  8
0
 62
     0
100
AcDbMText
 10
49.88780892552273
 20
396.0000000000001
 30
0.0
 40
5.279999999999999
 41
0.0
 46
0.0
 71
     5
 72
     1
  1
\A1;2'
 73
     1
 44
1.0
  0
POINT
  5
13E3
330
1316
100
AcDbEntity
  8
Defpoints
 62
     0
100
AcDbPoint
 10
164.0541352886303
 20
384.0
 30
0.0
  0
POINT
  5
13E4
330
1316
100
AcDbEntity
  8
Defpoints
 62
     0
100
AcDbPoint
 10
164.0541352886303
 20
408.0
 30
0.0
  0
POINT
  5
13E5
330
1316
100
AcDbEntity
  8
Defpoints
 62
     0
100
AcDbPoint
 10
49.8878089255228
 20
408.0000000000001
 30
0.0
  0
ENDBLK
  5
1322
330
1316
100
AcDbEntity
  8
0
100
AcDbBlockEnd
  0
BLOCK
  5
132F
330
1324
100
AcDbEntity
  8
0
100
AcDbBlockBegin
  2
*D87
 70
     1
 10
0.0
 20
0.0
 30
0.0
  3
*D87
  1

  0
LINE
  5
13E6
330
1324
100
AcDbEntity
  8
0
 62
     0
370
    -2
100
AcDbLine
 10
158.0541352886303
 20
408.0
 30
0.0
 11
43.8878089255228
 21
408.0000000000001
 31
0.0
  0
LINE
  5
13E7
330
1324
100
AcDbEntity
  8
0
 62
     0
370
    -2
100
AcDbLine
 10
158.0541352886303
 20
456.0
 30
0.0
 11
43.8878089255228
 21
456.0000000000001
 31
0.0
  0
LINE
  5
13E8
330
1324
100
AcDbEntity
  8
0
 62
     0
370
    -2
100
AcDbLine
 10
49.8878089255228
 20
408.0000000000001
 30
0.0
 11
49.8878089255228
 21
423.3600000000001
 31
0.0
  0
LINE
  5
13E9
330
1324
100
AcDbEntity
  8
0
 62
     0
370
    -2
100
AcDbLine
 10
49.8878089255228
 20
456.0000000000001
 30
0.0
 11
49.8878089255228
 21
440.64
 31
0.0
  0
INSERT
  5
13EA
330
1324
100
AcDbEntity
  8
0
 62
     0
370
    -2
100
AcDbBlockReference
  2
_Oblique
 10
49.8878089255228
 20
408.0000000000001
 30
0.0
 41
5.279999999999999
 42
5.279999999999999
 43
5.279999999999999
 50
270.0
  0
INSERT
  5
13EB
330
1324
100
AcDbEntity
  8
0
 62
     0
370
    -2
100
AcDbBlockReference
  2
_Oblique
 10
49.8878089255228
 20
456.0000000000001
 30
0.0
 41
5.279999999999999
 42
5.279999999999999
 43
5.279999999999999
 50
90.0
  0
MTEXT
  5
13EC
330
1324
100
AcDbEntity
  8
0
 62
     0
100
AcDbMText
 10
49.88780892552273
 20
432.0000000000001
 30
0.0
 40
5.279999999999999
 41
0.0
 46
0.0
 71
     5
 72
     1
  1
\A1;4'
 73
     1
 44
1.0
  0
POINT
  5
13ED
330
1324
100
AcDbEntity
  8
Defpoints
 62
     0
100
AcDbPoint
 10
164.0541352886303
 20
408.0
 30
0.0
  0
POINT
  5
13EE
330
1324
100
AcDbEntity
  8
Defpoints
 62
     0
100
AcDbPoint
 10
164.0541352886303
 20
456.0
 30
0.0
  0
POINT
  5
13EF
330
1324
100
AcDbEntity
  8
Defpoints
 62
     0
100
AcDbPoint
 10
49.8878089255228
 20
456.0000000000001
 30
0.0
  0
ENDBLK
  5
1330
330
1324
100
AcDbEntity
  8
0
100
AcDbBlockEnd
  0
BLOCK
  5
133D
330
1332
100
AcDbEntity
  8
0
100
AcDbBlockBegin
  2
*D88
 70
     1
 10
0.0
 20
0.0
 30
0.0
  3
*D88
  1

  0
LINE
  5
13F0
330
1332
100
AcDbEntity
  8
0
 62
     0
370
    -2
100
AcDbLine
 10
158.0541352886303
 20
456.0
 30
0.0
 11
43.8878089255228
 21
456.0000000000001
 31
0.0
  0
LINE
  5
13F1
330
1332
100
AcDbEntity
  8
0
 62
     0
370
    -2
100
AcDbLine
 10
158.0541352886303
 20
480.0
 30
0.0
 11
43.88780892552281
 21
480.0000000000001
 31
0.0
  0
LINE
  5
13F2
330
1332
100
AcDbEntity
  8
0
 62
     0
370
    -2
100
AcDbLine
 10
49.8878089255228
 20
456.0000000000001
 30
0.0
 11
49.8878089255228
 21
450.7200000000001
 31
0.0
  0
LINE
  5
13F3
330
1332
100
AcDbEntity
  8
0
 62
     0
370
    -2
100
AcDbLine
 10
49.8878089255228
 20
480.0000000000001
 30
0.0
 11
49.8878089255228
 21
485.28
 31
0.0
  0
INSERT
  5
13F4
330
1332
100
AcDbEntity
  8
0
 62
     0
370
    -2
100
AcDbBlockReference
  2
_Oblique
 10
49.8878089255228
 20
456.0000000000001
 30
0.0
 41
5.279999999999999
 42
5.279999999999999
 43
5.279999999999999
 50
90.0
  0
INSERT
  5
13F5
330
1332
100
AcDbEntity
  8
0
 62
     0
370
    -2
100
AcDbBlockReference
  2
_Oblique
 10
49.8878089255228
 20
480.0000000000001
 30
0.0
 41
5.279999999999999
 42
5.279999999999999
 43
5.279999999999999
 50
270.0
  0
MTEXT
  5
13F6
330
1332
100
AcDbEntity
  8
0
 62
     0
100
AcDbMText
 10
49.88780892552273
 20
468.0000000000001
 30
0.0
 40
5.279999999999999
 41
0.0
 46
0.0
 71
     5
 72
     1
  1
\A1;2'
 73
     1
 44
1.0
  0
POINT
  5
13F7
330
1332
100
AcDbEntity
  8
Defpoints
 62
     0
100
AcDbPoint
 10
164.0541352886303
 20
456.0
 30
0.0
  0
POINT
  5
13F8
330
1332
100
AcDbEntity
  8
Defpoints
 62
     0
100
AcDbPoint
 10
164.0541352886303
 20
480.0
 30
0.0
  0
POINT
  5
13F9
330
1332
100
AcDbEntity
  8
Defpoints
 62
     0
100
AcDbPoint
 10
49.8878089255228
 20
480.0000000000001
 30
0.0
  0
ENDBLK
  5
133E
330
1332
100
AcDbEntity
  8
0
100
AcDbBlockEnd
  0
BLOCK
  5
134B
330
1340
100
AcDbEntity
  8
0
100
AcDbBlockBegin
  2
*D89
 70
     1
 10
0.0
 20
0.0
 30
0.0
  3
*D89
  1

  0
LINE
  5
13FA
330
1340
100
AcDbEntity
  8
0
 62
     0
370
    -2
100
AcDbLine
 10
158.0541352886303
 20
480.0
 30
0.0
 11
43.88780892552278
 21
480.0000000000001
 31
0.0
  0
LINE
  5
13FB
330
1340
100
AcDbEntity
  8
0
 62
     0
370
    -2
100
AcDbLine
 10
158.0541352886303
 20
576.0
 30
0.0
 11
43.8878089255228
 21
576.0
 31
0.0
  0
LINE
  5
13FC
330
1340
100
AcDbEntity
  8
0
 62
     0
370
    -2
100
AcDbLine
 10
49.88780892552278
 20
480.0000000000001
 30
0.0
 11
49.88780892552279
 21
519.3236140888208
 31
0.0
  0
LINE
  5
13FD
330
1340
100
AcDbEntity
  8
0
 62
     0
370
    -2
100
AcDbLine
 10
49.8878089255228
 20
576.0
 30
0.0
 11
49.8878089255228
 21
536.6763859111792
 31
0.0
  0
INSERT
  5
13FE
330
1340
100
AcDbEntity
  8
0
 62
     0
370
    -2
100
AcDbBlockReference
  2
_Oblique
 10
49.88780892552278
 20
480.0000000000001
 30
0.0
 41
5.279999999999999
 42
5.279999999999999
 43
5.279999999999999
 50
270.0
  0
INSERT
  5
13FF
330
1340
100
AcDbEntity
  8
0
 62
     0
370
    -2
100
AcDbBlockReference
  2
_Oblique
 10
49.8878089255228
 20
576.0
 30
0.0
 41
5.279999999999999
 42
5.279999999999999
 43
5.279999999999999
 50
90.0
  0
MTEXT
  5
1400
330
1340
100
AcDbEntity
  8
0
 62
     0
100
AcDbMText
 10
49.88780892552271
 20
528.0
 30
0.0
 40
5.279999999999999
 41
0.0
 46
0.0
 71
     5
 72
     1
  1
\A1;8'
 73
     1
 44
1.0
  0
POINT
  5
1401
330
1340
100
AcDbEntity
  8
Defpoints
 62
     0
100
AcDbPoint
 10
164.0541352886303
 20
480.0
 30
0.0
  0
POINT
  5
1402
330
1340
100
AcDbEntity
  8
Defpoints
 62
     0
100
AcDbPoint
 10
164.0541352886303
 20
576.0
 30
0.0
  0
POINT
  5
1403
330
1340
100
AcDbEntity
  8
Defpoints
 62
     0
100
AcDbPoint
 10
49.8878089255228
 20
576.0
 30
0.0
  0
ENDBLK
  5
134C
330
1340
100
AcDbEntity
  8
0
100
AcDbBlockEnd
  0
BLOCK
  5
1374
330
136A
100
AcDbEntity
  8
0
100
AcDbBlockBegin
  2
*D92
 70
     1
 10
0.0
 20
0.0
 30
0.0
  3
*D92
  1

  0
LINE
  5
136B
330
136A
100
AcDbEntity
  8
0
 62
     0
370
    -2
100
AcDbLine
 10
176.0541352886303
 20
420.0
 30
0.0
 11
176.0541352886303
 21
437.1097763448383
 31
0.0
  0
LINE
  5
136C
330
136A
100
AcDbEntity
  8
0
 62
     0
370
    -2
100
AcDbLine
 10
176.0541352886303
 20
431.1097763448383
 30
0.0
 11
167.9876728077727
 21
431.1097763448383
 31
0.0
  0
LINE
  5
136D
330
136A
100
AcDbEntity
  8
0
 62
     0
370
    -2
100
AcDbLine
 10
134.0541352886303
 20
431.1097763448383
 30
0.0
 11
142.1205977694879
 21
431.1097763448383
 31
0.0
  0
INSERT
  5
136E
330
136A
100
AcDbEntity
  8
0
 62
     0
370
    -2
100
AcDbBlockReference
  2
_Oblique
 10
176.0541352886303
 20
431.1097763448383
 30
0.0
 41
5.279999999999999
 42
5.279999999999999
 43
5.279999999999999
  0
INSERT
  5
136F
330
136A
100
AcDbEntity
  8
0
 62
     0
370
    -2
100
AcDbBlockReference
  2
_Oblique
 10
134.0541352886303
 20
431.1097763448383
 30
0.0
 41
5.279999999999999
 42
5.279999999999999
 43
5.279999999999999
 50
180.0
  0
MTEXT
  5
1370
330
136A
100
AcDbEntity
  8
0
 62
     0
100
AcDbMText
 10
155.0541352886303
 20
431.1097763448383
 30
0.0
 40
5.279999999999999
 41
0.0
 46
0.0
 71
     5
 72
     1
  1
\A1;3'-6"
 73
     1
 44
1.0
  0
POINT
  5
1371
330
136A
100
AcDbEntity
  8
Defpoints
 62
     0
100
AcDbPoint
 10
176.0541352886303
 20
414.0
 30
0.0
  0
POINT
  5
1372
330
136A
100
AcDbEntity
  8
Defpoints
 62
     0
100
AcDbPoint
 10
134.0541352886303
 20
431.1097763448383
 30
0.0
  0
POINT
  5
1373
330
136A
100
AcDbEntity
  8
Defpoints
 62
     0
100
AcDbPoint
 10
134.0541352886303
 20
431.1097763448383
 30
0.0
  0
ENDBLK
  5
1375
330
136A
100
AcDbEntity
  8
0
100
AcDbBlockEnd
  0
BLOCK
  5
1380
330
1377
100
AcDbEntity
  8
0
100
AcDbBlockBegin
  2
*D93
 70
     1
 10
0.0
 20
0.0
 30
0.0
  3
*D93
  1

  0
LINE
  5
1378
330
1377
100
AcDbEntity
  8
0
 62
     0
370
    -2
100
AcDbLine
 10
176.0541352886303
 20
431.1097763448383
 30
0.0
 11
208.2742271722444
 21
431.1097763448383
 31
0.0
  0
LINE
  5
1379
330
1377
100
AcDbEntity
  8
0
 62
     0
370
    -2
100
AcDbLine
 10
266.0541352886303
 20
431.1097763448383
 30
0.0
 11
233.8340434050162
 21
431.1097763448383
 31
0.0
  0
INSERT
  5
137A
330
1377
100
AcDbEntity
  8
0
 62
     0
370
    -2
100
AcDbBlockReference
  2
_Oblique
 10
176.0541352886303
 20
431.1097763448383
 30
0.0
 41
5.279999999999999
 42
5.279999999999999
 43
5.279999999999999
 50
180.0
  0
INSERT
  5
137B
330
1377
100
AcDbEntity
  8
0
 62
     0
370
    -2
100
AcDbBlockReference
  2
_Oblique
 10
266.0541352886303
 20
431.1097763448383
 30
0.0
 41
5.279999999999999
 42
5.279999999999999
 43
5.279999999999999
  0
MTEXT
  5
137C
330
1377
100
AcDbEntity
  8
0
 62
     0
100
AcDbMText
 10
221.0541352886303
 20
431.1097763448383
 30
0.0
 40
5.279999999999999
 41
0.0
 46
0.0
 71
     5
 72
     1
  1
\A1;7'-6"
 73
     1
 44
1.0
  0
POINT
  5
137D
330
1377
100
AcDbEntity
  8
Defpoints
 62
     0
100
AcDbPoint
 10
176.0541352886303
 20
431.1097763448383
 30
0.0
  0
POINT
  5
137E
330
1377
100
AcDbEntity
  8
Defpoints
 62
     0
100
AcDbPoint
 10
266.0541352886303
 20
431.1097763448383
 30
0.0
  0
POINT
  5
137F
330
1377
100
AcDbEntity
  8
Defpoints
 62
     0
100
AcDbPoint
 10
266.0541352886303
 20
431.1097763448383
 30
0.0
  0
ENDBLK
  5
1381
330
1377
100
AcDbEntity
  8
0
100
AcDbBlockEnd
  0
BLOCK
  5
1430
330
1425
100
AcDbEntity
  8
0
100
AcDbBlockBegin
  2
*D94
 70
     1
 10
0.0
 20
0.0
 30
0.0
  3
*D94
  1

  0
LINE
  5
16D6
330
1425
100
AcDbEntity
  8
0
 62
     0
370
    -2
100
AcDbLine
 10
259.1791352886303
 20
-6.0
 30
0.0
 11
259.1791352886303
 21
-81.5223173878071
 31
0.0
  0
LINE
  5
16D7
330
1425
100
AcDbEntity
  8
0
 62
     0
370
    -2
100
AcDbLine
 10
787.1791352886303
 20
-6.0
 30
0.0
 11
787.1791352886303
 21
-81.5223173878071
 31
0.0
  0
LINE
  5
16D8
330
1425
100
AcDbEntity
  8
0
 62
     0
370
    -2
100
AcDbLine
 10
259.1791352886303
 20
-75.5223173878071
 30
0.0
 11
513.1039132365629
 21
-75.5223173878071
 31
0.0
  0
LINE
  5
16D9
330
1425
100
AcDbEntity
  8
0
 62
     0
370
    -2
100
AcDbLine
 10
787.1791352886303
 20
-75.5223173878071
 30
0.0
 11
533.2543573406977
 21
-75.5223173878071
 31
0.0
  0
INSERT
  5
16DA
330
1425
100
AcDbEntity
  8
0
 62
     0
370
    -2
100
AcDbBlockReference
  2
_Oblique
 10
259.1791352886303
 20
-75.5223173878071
 30
0.0
 41
5.279999999999999
 42
5.279999999999999
 43
5.279999999999999
 50
180.0
  0
INSERT
  5
16DB
330
1425
100
AcDbEntity
  8
0
 62
     0
370
    -2
100
AcDbBlockReference
  2
_Oblique
 10
787.1791352886303
 20
-75.5223173878071
 30
0.0
 41
5.279999999999999
 42
5.279999999999999
 43
5.279999999999999
  0
MTEXT
  5
16DC
330
1425
100
AcDbEntity
  8
0
 62
     0
100
AcDbMText
 10
523.1791352886303
 20
-75.5223173878071
 30
0.0
 40
5.279999999999999
 41
0.0
 46
0.0
 71
     5
 72
     1
  1
\A1;44'
 73
     1
 44
1.0
  0
POINT
  5
16DD
330
1425
100
AcDbEntity
  8
Defpoints
 62
     0
100
AcDbPoint
 10
259.1791352886303
 20
0.0
 30
0.0
  0
POINT
  5
16DE
330
1425
100
AcDbEntity
  8
Defpoints
 62
     0
100
AcDbPoint
 10
787.1791352886303
 20
0.0
 30
0.0
  0
POINT
  5
16DF
330
1425
100
AcDbEntity
  8
Defpoints
 62
     0
100
AcDbPoint
 10
787.1791352886303
 20
-75.5223173878071
 30
0.0
  0
ENDBLK
  5
1431
330
1425
100
AcDbEntity
  8
0
100
AcDbBlockEnd
  0
BLOCK
  5
143C
330
1432
100
AcDbEntity
  8
0
100
AcDbBlockBegin
  2
*D95
 70
     1
 10
0.0
 20
0.0
 30
0.0
  3
*D95
  1

  0
LINE
  5
15B1
330
1432
100
AcDbEntity
  8
0
 62
     0
370
    -2
100
AcDbLine
 10
259.1791352886303
 20
-6.0
 30
0.0
 11
259.1791352886303
 21
-62.2210201134917
 31
0.0
  0
LINE
  5
15B2
330
1432
100
AcDbEntity
  8
0
 62
     0
370
    -2
100
AcDbLine
 10
259.1791352886303
 20
-56.2210201134917
 30
0.0
 11
298.9353374325813
 21
-56.2210201134917
 31
0.0
  0
LINE
  5
15B3
330
1432
100
AcDbEntity
  8
0
 62
     0
370
    -2
100
AcDbLine
 10
355.1791352886303
 20
-56.2210201134917
 30
0.0
 11
315.4229331446793
 21
-56.2210201134917
 31
0.0
  0
INSERT
  5
15B4
330
1432
100
AcDbEntity
  8
0
 62
     0
370
    -2
100
AcDbBlockReference
  2
_Oblique
 10
259.1791352886303
 20
-56.2210201134917
 30
0.0
 41
5.279999999999999
 42
5.279999999999999
 43
5.279999999999999
 50
180.0
  0
INSERT
  5
15B5
330
1432
100
AcDbEntity
  8
0
 62
     0
370
    -2
100
AcDbBlockReference
  2
_Oblique
 10
355.1791352886303
 20
-56.2210201134917
 30
0.0
 41
5.279999999999999
 42
5.279999999999999
 43
5.279999999999999
  0
MTEXT
  5
15B6
330
1432
100
AcDbEntity
  8
0
 62
     0
100
AcDbMText
 10
307.1791352886303
 20
-56.2210201134917
 30
0.0
 40
5.279999999999999
 41
0.0
 46
0.0
 71
     5
 72
     1
  1
\A1;8'
 73
     1
 44
1.0
  0
POINT
  5
15B7
330
1432
100
AcDbEntity
  8
Defpoints
 62
     0
100
AcDbPoint
 10
259.1791352886303
 20
0.0
 30
0.0
  0
POINT
  5
15B8
330
1432
100
AcDbEntity
  8
Defpoints
 62
     0
100
AcDbPoint
 10
355.1791352886303
 20
-56.2210201134917
 30
0.0
  0
POINT
  5
15B9
330
1432
100
AcDbEntity
  8
Defpoints
 62
     0
100
AcDbPoint
 10
355.1791352886303
 20
-56.2210201134917
 30
0.0
  0
ENDBLK
  5
143D
330
1432
100
AcDbEntity
  8
0
100
AcDbBlockEnd
  0
BLOCK
  5
1449
330
143E
100
AcDbEntity
  8
0
100
AcDbBlockBegin
  2
*D96
 70
     1
 10
0.0
 20
0.0
 30
0.0
  3
*D96
  1

  0
LINE
  5
15BA
330
143E
100
AcDbEntity
  8
0
 62
     0
370
    -2
100
AcDbLine
 10
787.1791352886303
 20
-6.0
 30
0.0
 11
787.1791352886303
 21
-62.2210201134917
 31
0.0
  0
LINE
  5
15BB
330
143E
100
AcDbEntity
  8
0
 62
     0
370
    -2
100
AcDbLine
 10
691.1791352886303
 20
-6.0
 30
0.0
 11
691.1791352886303
 21
-62.2210201134917
 31
0.0
  0
LINE
  5
15BC
330
143E
100
AcDbEntity
  8
0
 62
     0
370
    -2
100
AcDbLine
 10
787.1791352886303
 20
-56.2210201134917
 30
0.0
 11
747.4229331446793
 21
-56.2210201134917
 31
0.0
  0
LINE
  5
15BD
330
143E
100
AcDbEntity
  8
0
 62
     0
370
    -2
100
AcDbLine
 10
691.1791352886303
 20
-56.2210201134917
 30
0.0
 11
730.9353374325813
 21
-56.2210201134917
 31
0.0
  0
INSERT
  5
15BE
330
143E
100
AcDbEntity
  8
0
 62
     0
370
    -2
100
AcDbBlockReference
  2
_Oblique
 10
787.1791352886303
 20
-56.2210201134917
 30
0.0
 41
5.279999999999999
 42
5.279999999999999
 43
5.279999999999999
  0
INSERT
  5
15BF
330
143E
100
AcDbEntity
  8
0
 62
     0
370
    -2
100
AcDbBlockReference
  2
_Oblique
 10
691.1791352886303
 20
-56.2210201134917
 30
0.0
 41
5.279999999999999
 42
5.279999999999999
 43
5.279999999999999
 50
180.0
  0
MTEXT
  5
15C0
330
143E
100
AcDbEntity
  8
0
 62
     0
100
AcDbMText
 10
739.1791352886303
 20
-56.2210201134917
 30
0.0
 40
5.279999999999999
 41
0.0
 46
0.0
 71
     5
 72
     1
  1
\A1;8'
 73
     1
 44
1.0
  0
POINT
  5
15C1
330
143E
100
AcDbEntity
  8
Defpoints
 62
     0
100
AcDbPoint
 10
787.1791352886303
 20
0.0
 30
0.0
  0
POINT
  5
15C2
330
143E
100
AcDbEntity
  8
Defpoints
 62
     0
100
AcDbPoint
 10
691.1791352886303
 20
0.0
 30
0.0
  0
POINT
  5
15C3
330
143E
100
AcDbEntity
  8
Defpoints
 62
     0
100
AcDbPoint
 10
691.1791352886303
 20
-56.2210201134917
 30
0.0
  0
ENDBLK
  5
144A
330
143E
100
AcDbEntity
  8
0
100
AcDbBlockEnd
  0
BLOCK
  5
1456
330
144B
100
AcDbEntity
  8
0
100
AcDbBlockBegin
  2
*D97
 70
     1
 10
0.0
 20
0.0
 30
0.0
  3
*D97
  1

  0
LINE
  5
15C4
330
144B
100
AcDbEntity
  8
0
 62
     0
370
    -2
100
AcDbLine
 10
523.1791352886303
 20
-22.0
 30
0.0
 11
523.1791352886303
 21
-62.2210201134917
 31
0.0
  0
LINE
  5
15C5
330
144B
100
AcDbEntity
  8
0
 62
     0
370
    -2
100
AcDbLine
 10
443.1791352886303
 20
-22.0
 30
0.0
 11
443.1791352886303
 21
-62.2210201134917
 31
0.0
  0
LINE
  5
15C6
330
144B
100
AcDbEntity
  8
0
 62
     0
370
    -2
100
AcDbLine
 10
523.1791352886303
 20
-56.2210201134917
 30
0.0
 11
496.0439438644343
 21
-56.2210201134917
 31
0.0
  0
LINE
  5
15C7
330
144B
100
AcDbEntity
  8
0
 62
     0
370
    -2
100
AcDbLine
 10
443.1791352886303
 20
-56.2210201134917
 30
0.0
 11
470.3143267128263
 21
-56.2210201134917
 31
0.0
  0
INSERT
  5
15C8
330
144B
100
AcDbEntity
  8
0
 62
     0
370
    -2
100
AcDbBlockReference
  2
_Oblique
 10
523.1791352886303
 20
-56.2210201134917
 30
0.0
 41
5.279999999999999
 42
5.279999999999999
 43
5.279999999999999
  0
INSERT
  5
15C9
330
144B
100
AcDbEntity
  8
0
 62
     0
370
    -2
100
AcDbBlockReference
  2
_Oblique
 10
443.1791352886303
 20
-56.2210201134917
 30
0.0
 41
5.279999999999999
 42
5.279999999999999
 43
5.279999999999999
 50
180.0
  0
MTEXT
  5
15CA
330
144B
100
AcDbEntity
  8
0
 62
     0
100
AcDbMText
 10
483.1791352886303
 20
-56.2210201134917
 30
0.0
 40
5.279999999999999
 41
0.0
 46
0.0
 71
     5
 72
     1
  1
\A1;6'-8"
 73
     1
 44
1.0
  0
POINT
  5
15CB
330
144B
100
AcDbEntity
  8
Defpoints
 62
     0
100
AcDbPoint
 10
523.1791352886303
 20
-16.0
 30
0.0
  0
POINT
  5
15CC
330
144B
100
AcDbEntity
  8
Defpoints
 62
     0
100
AcDbPoint
 10
443.1791352886303
 20
-16.0
 30
0.0
  0
POINT
  5
15CD
330
144B
100
AcDbEntity
  8
Defpoints
 62
     0
100
AcDbPoint
 10
443.1791352886303
 20
-56.2210201134917
 30
0.0
  0
ENDBLK
  5
1457
330
144B
100
AcDbEntity
  8
0
100
AcDbBlockEnd
  0
BLOCK
  5
1463
330
1458
100
AcDbEntity
  8
0
100
AcDbBlockBegin
  2
*D98
 70
     1
 10
0.0
 20
0.0
 30
0.0
  3
*D98
  1

  0
LINE
  5
15CE
330
1458
100
AcDbEntity
  8
0
 62
     0
370
    -2
100
AcDbLine
 10
443.1791352886303
 20
-22.0
 30
0.0
 11
443.1791352886303
 21
-62.2210201134917
 31
0.0
  0
LINE
  5
15CF
330
1458
100
AcDbEntity
  8
0
 62
     0
370
    -2
100
AcDbLine
 10
355.1791352886303
 20
-22.0
 30
0.0
 11
355.1791352886303
 21
-62.2210201134917
 31
0.0
  0
LINE
  5
15D0
330
1458
100
AcDbEntity
  8
0
 62
     0
370
    -2
100
AcDbLine
 10
443.1791352886303
 20
-56.2210201134917
 30
0.0
 11
411.9590434050162
 21
-56.2210201134917
 31
0.0
  0
LINE
  5
15D1
330
1458
100
AcDbEntity
  8
0
 62
     0
370
    -2
100
AcDbLine
 10
355.1791352886303
 20
-56.2210201134917
 30
0.0
 11
386.3992271722444
 21
-56.2210201134917
 31
0.0
  0
INSERT
  5
15D2
330
1458
100
AcDbEntity
  8
0
 62
     0
370
    -2
100
AcDbBlockReference
  2
_Oblique
 10
443.1791352886303
 20
-56.2210201134917
 30
0.0
 41
5.279999999999999
 42
5.279999999999999
 43
5.279999999999999
  0
INSERT
  5
15D3
330
1458
100
AcDbEntity
  8
0
 62
     0
370
    -2
100
AcDbBlockReference
  2
_Oblique
 10
355.1791352886303
 20
-56.2210201134917
 30
0.0
 41
5.279999999999999
 42
5.279999999999999
 43
5.279999999999999
 50
180.0
  0
MTEXT
  5
15D4
330
1458
100
AcDbEntity
  8
0
 62
     0
100
AcDbMText
 10
399.1791352886303
 20
-56.2210201134917
 30
0.0
 40
5.279999999999999
 41
0.0
 46
0.0
 71
     5
 72
     1
  1
\A1;7'-4"
 73
     1
 44
1.0
  0
POINT
  5
15D5
330
1458
100
AcDbEntity
  8
Defpoints
 62
     0
100
AcDbPoint
 10
443.1791352886303
 20
-16.0
 30
0.0
  0
POINT
  5
15D6
330
1458
100
AcDbEntity
  8
Defpoints
 62
     0
100
AcDbPoint
 10
355.1791352886303
 20
-16.0
 30
0.0
  0
POINT
  5
15D7
330
1458
100
AcDbEntity
  8
Defpoints
 62
     0
100
AcDbPoint
 10
355.1791352886303
 20
-56.2210201134917
 30
0.0
  0
ENDBLK
  5
1464
330
1458
100
AcDbEntity
  8
0
100
AcDbBlockEnd
  0
BLOCK
  5
1470
330
1465
100
AcDbEntity
  8
0
100
AcDbBlockBegin
  2
*D99
 70
     1
 10
0.0
 20
0.0
 30
0.0
  3
*D99
  1

  0
LINE
  5
15D8
330
1465
100
AcDbEntity
  8
0
 62
     0
370
    -2
100
AcDbLine
 10
691.1791352886303
 20
-6.0
 30
0.0
 11
691.1791352886303
 21
-62.2210201134917
 31
0.0
  0
LINE
  5
15D9
330
1465
100
AcDbEntity
  8
0
 62
     0
370
    -2
100
AcDbLine
 10
603.1791352886303
 20
-6.0
 30
0.0
 11
603.1791352886303
 21
-62.2210201134917
 31
0.0
  0
LINE
  5
15DA
330
1465
100
AcDbEntity
  8
0
 62
     0
370
    -2
100
AcDbLine
 10
691.1791352886303
 20
-56.2210201134917
 30
0.0
 11
659.9590434050162
 21
-56.2210201134917
 31
0.0
  0
LINE
  5
15DB
330
1465
100
AcDbEntity
  8
0
 62
     0
370
    -2
100
AcDbLine
 10
603.1791352886303
 20
-56.2210201134917
 30
0.0
 11
634.3992271722443
 21
-56.2210201134917
 31
0.0
  0
INSERT
  5
15DC
330
1465
100
AcDbEntity
  8
0
 62
     0
370
    -2
100
AcDbBlockReference
  2
_Oblique
 10
691.1791352886303
 20
-56.2210201134917
 30
0.0
 41
5.279999999999999
 42
5.279999999999999
 43
5.279999999999999
  0
INSERT
  5
15DD
330
1465
100
AcDbEntity
  8
0
 62
     0
370
    -2
100
AcDbBlockReference
  2
_Oblique
 10
603.1791352886303
 20
-56.2210201134917
 30
0.0
 41
5.279999999999999
 42
5.279999999999999
 43
5.279999999999999
 50
180.0
  0
MTEXT
  5
15DE
330
1465
100
AcDbEntity
  8
0
 62
     0
100
AcDbMText
 10
647.1791352886303
 20
-56.2210201134917
 30
0.0
 40
5.279999999999999
 41
0.0
 46
0.0
 71
     5
 72
     1
  1
\A1;7'-4"
 73
     1
 44
1.0
  0
POINT
  5
15DF
330
1465
100
AcDbEntity
  8
Defpoints
 62
     0
100
AcDbPoint
 10
691.1791352886303
 20
0.0
 30
0.0
  0
POINT
  5
15E0
330
1465
100
AcDbEntity
  8
Defpoints
 62
     0
100
AcDbPoint
 10
603.1791352886303
 20
0.0
 30
0.0
  0
POINT
  5
15E1
330
1465
100
AcDbEntity
  8
Defpoints
 62
     0
100
AcDbPoint
 10
603.1791352886303
 20
-56.2210201134917
 30
0.0
  0
ENDBLK
  5
1471
330
1465
100
AcDbEntity
  8
0
100
AcDbBlockEnd
  0
BLOCK
  5
147B
330
1472
100
AcDbEntity
  8
0
100
AcDbBlockBegin
  2
*D100
 70
     1
 10
0.0
 20
0.0
 30
0.0
  3
*D100
  1

  0
LINE
  5
15E2
330
1472
100
AcDbEntity
  8
0
 62
     0
370
    -2
100
AcDbLine
 10
603.1791352886303
 20
-56.2210201134917
 30
0.0
 11
576.0439438644343
 21
-56.2210201134917
 31
0.0
  0
LINE
  5
15E3
330
1472
100
AcDbEntity
  8
0
 62
     0
370
    -2
100
AcDbLine
 10
523.1791352886303
 20
-56.2210201134917
 30
0.0
 11
550.3143267128263
 21
-56.2210201134917
 31
0.0
  0
INSERT
  5
15E4
330
1472
100
AcDbEntity
  8
0
 62
     0
370
    -2
100
AcDbBlockReference
  2
_Oblique
 10
603.1791352886303
 20
-56.2210201134917
 30
0.0
 41
5.279999999999999
 42
5.279999999999999
 43
5.279999999999999
  0
INSERT
  5
15E5
330
1472
100
AcDbEntity
  8
0
 62
     0
370
    -2
100
AcDbBlockReference
  2
_Oblique
 10
523.1791352886303
 20
-56.2210201134917
 30
0.0
 41
5.279999999999999
 42
5.279999999999999
 43
5.279999999999999
 50
180.0
  0
MTEXT
  5
15E6
330
1472
100
AcDbEntity
  8
0
 62
     0
100
AcDbMText
 10
563.1791352886303
 20
-56.2210201134917
 30
0.0
 40
5.279999999999999
 41
0.0
 46
0.0
 71
     5
 72
     1
  1
\A1;6'-8"
 73
     1
 44
1.0
  0
POINT
  5
15E7
330
1472
100
AcDbEntity
  8
Defpoints
 62
     0
100
AcDbPoint
 10
603.1791352886303
 20
-56.2210201134917
 30
0.0
  0
POINT
  5
15E8
330
1472
100
AcDbEntity
  8
Defpoints
 62
     0
100
AcDbPoint
 10
523.1791352886303
 20
-56.2210201134917
 30
0.0
  0
POINT
  5
15E9
330
1472
100
AcDbEntity
  8
Defpoints
 62
     0
100
AcDbPoint
 10
523.1791352886303
 20
-56.2210201134917
 30
0.0
  0
ENDBLK
  5
147C
330
1472
100
AcDbEntity
  8
0
100
AcDbBlockEnd
  0
BLOCK
  5
1488
330
147D
100
AcDbEntity
  8
0
100
AcDbBlockBegin
  2
*D101
 70
     1
 10
0.0
 20
0.0
 30
0.0
  3
*D101
  1

  0
LINE
  5
15EA
330
147D
100
AcDbEntity
  8
0
 62
     0
370
    -2
100
AcDbLine
 10
253.1791352886303
 20
0.0000000000000017
 30
0.0
 11
71.18410120368551
 21
0.0000000000000533
 31
0.0
  0
LINE
  5
15EB
330
147D
100
AcDbEntity
  8
0
 62
     0
370
    -2
100
AcDbLine
 10
157.1791352886303
 20
912.0
 30
0.0
 11
71.18410120368571
 21
912.0
 31
0.0
  0
LINE
  5
15EC
330
147D
100
AcDbEntity
  8
0
 62
     0
370
    -2
100
AcDbLine
 10
77.18410120368551
 20
0.0000000000000516
 30
0.0
 11
77.18410120368561
 21
447.3236140888209
 31
0.0
  0
LINE
  5
15ED
330
147D
100
AcDbEntity
  8
0
 62
     0
370
    -2
100
AcDbLine
 10
77.18410120368571
 20
912.0
 30
0.0
 11
77.18410120368561
 21
464.6763859111792
 31
0.0
  0
INSERT
  5
15EE
330
147D
100
AcDbEntity
  8
0
 62
     0
370
    -2
100
AcDbBlockReference
  2
_Oblique
 10
77.18410120368551
 20
0.0000000000000516
 30
0.0
 41
5.279999999999999
 42
5.279999999999999
 43
5.279999999999999
 50
270.0
  0
INSERT
  5
15EF
330
147D
100
AcDbEntity
  8
0
 62
     0
370
    -2
100
AcDbBlockReference
  2
_Oblique
 10
77.18410120368571
 20
912.0
 30
0.0
 41
5.279999999999999
 42
5.279999999999999
 43
5.279999999999999
 50
90.0
  0
MTEXT
  5
15F0
330
147D
100
AcDbEntity
  8
0
 62
     0
100
AcDbMText
 10
77.18410120368554
 20
456.0000000000001
 30
0.0
 40
5.279999999999999
 41
0.0
 46
0.0
 71
     5
 72
     1
  1
\A1;76'
 73
     1
 44
1.0
  0
POINT
  5
15F1
330
147D
100
AcDbEntity
  8
Defpoints
 62
     0
100
AcDbPoint
 10
259.1791352886303
 20
0.0
 30
0.0
  0
POINT
  5
15F2
330
147D
100
AcDbEntity
  8
Defpoints
 62
     0
100
AcDbPoint
 10
163.1791352886303
 20
912.0
 30
0.0
  0
POINT
  5
15F3
330
147D
100
AcDbEntity
  8
Defpoints
 62
     0
100
AcDbPoint
 10
77.18410120368571
 20
912.0
 30
0.0
  0
ENDBLK
  5
1489
330
147D
100
AcDbEntity
  8
0
100
AcDbBlockEnd
  0
BLOCK
  5
1495
330
148A
100
AcDbEntity
  8
0
100
AcDbBlockBegin
  2
*D102
 70
     1
 10
0.0
 20
0.0
 30
0.0
  3
*D102
  1

  0
LINE
  5
15F4
330
148A
100
AcDbEntity
  8
0
 62
     0
370
    -2
100
AcDbLine
 10
253.1791352886303
 20
0.0000000000000017
 30
0.0
 11
99.71793150602377
 21
0.0000000000000452
 31
0.0
  0
LINE
  5
15F5
330
148A
100
AcDbEntity
  8
0
 62
     0
370
    -2
100
AcDbLine
 10
157.1791352886303
 20
576.0
 30
0.0
 11
99.71793150602389
 21
576.0
 31
0.0
  0
LINE
  5
15F6
330
148A
100
AcDbEntity
  8
0
 62
     0
370
    -2
100
AcDbLine
 10
105.7179315060238
 20
0.0000000000000435
 30
0.0
 11
105.7179315060238
 21
279.3236140888209
 31
0.0
  0
LINE
  5
15F7
330
148A
100
AcDbEntity
  8
0
 62
     0
370
    -2
100
AcDbLine
 10
105.7179315060239
 20
576.0
 30
0.0
 11
105.7179315060238
 21
296.6763859111792
 31
0.0
  0
INSERT
  5
15F8
330
148A
100
AcDbEntity
  8
0
 62
     0
370
    -2
100
AcDbBlockReference
  2
_Oblique
 10
105.7179315060238
 20
0.0000000000000435
 30
0.0
 41
5.279999999999999
 42
5.279999999999999
 43
5.279999999999999
 50
270.0
  0
INSERT
  5
15F9
330
148A
100
AcDbEntity
  8
0
 62
     0
370
    -2
100
AcDbBlockReference
  2
_Oblique
 10
105.7179315060239
 20
576.0
 30
0.0
 41
5.279999999999999
 42
5.279999999999999
 43
5.279999999999999
 50
90.0
  0
MTEXT
  5
15FA
330
148A
100
AcDbEntity
  8
0
 62
     0
100
AcDbMText
 10
105.7179315060238
 20
288.0000000000001
 30
0.0
 40
5.279999999999999
 41
0.0
 46
0.0
 71
     5
 72
     1
  1
\A1;48'
 73
     1
 44
1.0
  0
POINT
  5
15FB
330
148A
100
AcDbEntity
  8
Defpoints
 62
     0
100
AcDbPoint
 10
259.1791352886303
 20
0.0
 30
0.0
  0
POINT
  5
15FC
330
148A
100
AcDbEntity
  8
Defpoints
 62
     0
100
AcDbPoint
 10
163.1791352886303
 20
576.0
 30
0.0
  0
POINT
  5
15FD
330
148A
100
AcDbEntity
  8
Defpoints
 62
     0
100
AcDbPoint
 10
105.7179315060239
 20
576.0
 30
0.0
  0
ENDBLK
  5
1496
330
148A
100
AcDbEntity
  8
0
100
AcDbBlockEnd
  0
BLOCK
  5
14A2
330
1497
100
AcDbEntity
  8
0
100
AcDbBlockBegin
  2
*D103
 70
     1
 10
0.0
 20
0.0
 30
0.0
  3
*D103
  1

  0
LINE
  5
15FE
330
1497
100
AcDbEntity
  8
0
 62
     0
370
    -2
100
AcDbLine
 10
157.1791352886303
 20
576.0
 30
0.0
 11
127.6564941371981
 21
576.0
 31
0.0
  0
LINE
  5
15FF
330
1497
100
AcDbEntity
  8
0
 62
     0
370
    -2
100
AcDbLine
 10
157.1791352886303
 20
432.0
 30
0.0
 11
127.656494137198
 21
432.0000000000001
 31
0.0
  0
LINE
  5
1600
330
1497
100
AcDbEntity
  8
0
 62
     0
370
    -2
100
AcDbLine
 10
133.6564941371981
 20
576.0
 30
0.0
 11
133.6564941371981
 21
512.6763859111792
 31
0.0
  0
LINE
  5
1601
330
1497
100
AcDbEntity
  8
0
 62
     0
370
    -2
100
AcDbLine
 10
133.656494137198
 20
432.0
 30
0.0
 11
133.6564941371981
 21
495.3236140888208
 31
0.0
  0
INSERT
  5
1602
330
1497
100
AcDbEntity
  8
0
 62
     0
370
    -2
100
AcDbBlockReference
  2
_Oblique
 10
133.6564941371981
 20
576.0
 30
0.0
 41
5.279999999999999
 42
5.279999999999999
 43
5.279999999999999
 50
90.0
  0
INSERT
  5
1603
330
1497
100
AcDbEntity
  8
0
 62
     0
370
    -2
100
AcDbBlockReference
  2
_Oblique
 10
133.656494137198
 20
432.0
 30
0.0
 41
5.279999999999999
 42
5.279999999999999
 43
5.279999999999999
 50
270.0
  0
MTEXT
  5
1604
330
1497
100
AcDbEntity
  8
0
 62
     0
100
AcDbMText
 10
133.656494137198
 20
504.0
 30
0.0
 40
5.279999999999999
 41
0.0
 46
0.0
 71
     5
 72
     1
  1
\A1;12'
 73
     1
 44
1.0
  0
POINT
  5
1605
330
1497
100
AcDbEntity
  8
Defpoints
 62
     0
100
AcDbPoint
 10
163.1791352886303
 20
576.0
 30
0.0
  0
POINT
  5
1606
330
1497
100
AcDbEntity
  8
Defpoints
 62
     0
100
AcDbPoint
 10
163.1791352886303
 20
432.0
 30
0.0
  0
POINT
  5
1607
330
1497
100
AcDbEntity
  8
Defpoints
 62
     0
100
AcDbPoint
 10
133.656494137198
 20
432.0
 30
0.0
  0
ENDBLK
  5
14A3
330
1497
100
AcDbEntity
  8
0
100
AcDbBlockEnd
  0
BLOCK
  5
14AD
330
14A4
100
AcDbEntity
  8
0
100
AcDbBlockBegin
  2
*D104
 70
     1
 10
0.0
 20
0.0
 30
0.0
  3
*D104
  1

  0
LINE
  5
1608
330
14A4
100
AcDbEntity
  8
0
 62
     0
370
    -2
100
AcDbLine
 10
133.6564941371981
 20
432.0
 30
0.0
 11
133.6564941371981
 21
368.6763859111792
 31
0.0
  0
LINE
  5
1609
330
14A4
100
AcDbEntity
  8
0
 62
     0
370
    -2
100
AcDbLine
 10
133.656494137198
 20
288.0
 30
0.0
 11
133.6564941371981
 21
351.3236140888208
 31
0.0
  0
INSERT
  5
160A
330
14A4
100
AcDbEntity
  8
0
 62
     0
370
    -2
100
AcDbBlockReference
  2
_Oblique
 10
133.6564941371981
 20
432.0
 30
0.0
 41
5.279999999999999
 42
5.279999999999999
 43
5.279999999999999
 50
90.0
  0
INSERT
  5
160B
330
14A4
100
AcDbEntity
  8
0
 62
     0
370
    -2
100
AcDbBlockReference
  2
_Oblique
 10
133.656494137198
 20
288.0
 30
0.0
 41
5.279999999999999
 42
5.279999999999999
 43
5.279999999999999
 50
270.0
  0
MTEXT
  5
160C
330
14A4
100
AcDbEntity
  8
0
 62
     0
100
AcDbMText
 10
133.656494137198
 20
360.0000000000001
 30
0.0
 40
5.279999999999999
 41
0.0
 46
0.0
 71
     5
 72
     1
  1
\A1;12'
 73
     1
 44
1.0
  0
POINT
  5
160D
330
14A4
100
AcDbEntity
  8
Defpoints
 62
     0
100
AcDbPoint
 10
133.656494137198
 20
432.0
 30
0.0
  0
POINT
  5
160E
330
14A4
100
AcDbEntity
  8
Defpoints
 62
     0
100
AcDbPoint
 10
133.656494137198
 20
288.0
 30
0.0
  0
POINT
  5
160F
330
14A4
100
AcDbEntity
  8
Defpoints
 62
     0
100
AcDbPoint
 10
133.656494137198
 20
288.0
 30
0.0
  0
ENDBLK
  5
14AE
330
14A4
100
AcDbEntity
  8
0
100
AcDbBlockEnd
  0
BLOCK
  5
14BA
330
14AF
100
AcDbEntity
  8
0
100
AcDbBlockBegin
  2
*D105
 70
     1
 10
0.0
 20
0.0
 30
0.0
  3
*D105
  1

  0
LINE
  5
1610
330
14AF
100
AcDbEntity
  8
0
 62
     0
370
    -2
100
AcDbLine
 10
217.1791352886303
 20
110.0
 30
0.0
 11
127.6564941371979
 21
110.0
 31
0.0
  0
LINE
  5
1611
330
14AF
100
AcDbEntity
  8
0
 62
     0
370
    -2
100
AcDbLine
 10
217.1791352886303
 20
48.0
 30
0.0
 11
127.6564941371979
 21
48.00000000000003
 31
0.0
  0
LINE
  5
1612
330
14AF
100
AcDbEntity
  8
0
 62
     0
370
    -2
100
AcDbLine
 10
133.6564941371979
 20
110.0
 30
0.0
 11
133.6564941371979
 21
87.68851454823893
 31
0.0
  0
LINE
  5
1613
330
14AF
100
AcDbEntity
  8
0
 62
     0
370
    -2
100
AcDbLine
 10
133.6564941371979
 20
48.00000000000003
 30
0.0
 11
133.6564941371979
 21
70.31148545176113
 31
0.0
  0
INSERT
  5
1614
330
14AF
100
AcDbEntity
  8
0
 62
     0
370
    -2
100
AcDbBlockReference
  2
_Oblique
 10
133.6564941371979
 20
110.0
 30
0.0
 41
5.279999999999999
 42
5.279999999999999
 43
5.279999999999999
 50
90.0
  0
INSERT
  5
1615
330
14AF
100
AcDbEntity
  8
0
 62
     0
370
    -2
100
AcDbBlockReference
  2
_Oblique
 10
133.6564941371979
 20
48.00000000000003
 30
0.0
 41
5.279999999999999
 42
5.279999999999999
 43
5.279999999999999
 50
270.0
  0
MTEXT
  5
1616
330
14AF
100
AcDbEntity
  8
0
 62
     0
100
AcDbMText
 10
133.6564941371979
 20
79.00000000000004
 30
0.0
 40
5.279999999999999
 41
0.0
 46
0.0
 71
     5
 72
     1
  1
\A1;5'-2"
 73
     1
 44
1.0
  0
POINT
  5
1617
330
14AF
100
AcDbEntity
  8
Defpoints
 62
     0
100
AcDbPoint
 10
223.1791352886303
 20
110.0
 30
0.0
  0
POINT
  5
1618
330
14AF
100
AcDbEntity
  8
Defpoints
 62
     0
100
AcDbPoint
 10
223.1791352886303
 20
48.0
 30
0.0
  0
POINT
  5
1619
330
14AF
100
AcDbEntity
  8
Defpoints
 62
     0
100
AcDbPoint
 10
133.6564941371979
 20
48.00000000000003
 30
0.0
  0
ENDBLK
  5
14BB
330
14AF
100
AcDbEntity
  8
0
100
AcDbBlockEnd
  0
BLOCK
  5
14C5
330
14BC
100
AcDbEntity
  8
0
100
AcDbBlockBegin
  2
*D106
 70
     1
 10
0.0
 20
0.0
 30
0.0
  3
*D106
  1

  0
LINE
  5
161A
330
14BC
100
AcDbEntity
  8
0
 62
     0
370
    -2
100
AcDbLine
 10
133.6564941371979
 20
48.00000000000003
 30
0.0
 11
133.6564941371979
 21
32.64000000000003
 31
0.0
  0
LINE
  5
161B
330
14BC
100
AcDbEntity
  8
0
 62
     0
370
    -2
100
AcDbLine
 10
133.6564941371979
 20
0.0000000000000284
 30
0.0
 11
133.6564941371979
 21
15.36000000000003
 31
0.0
  0
INSERT
  5
161C
330
14BC
100
AcDbEntity
  8
0
 62
     0
370
    -2
100
AcDbBlockReference
  2
_Oblique
 10
133.6564941371979
 20
48.00000000000003
 30
0.0
 41
5.279999999999999
 42
5.279999999999999
 43
5.279999999999999
 50
90.0
  0
INSERT
  5
161D
330
14BC
100
AcDbEntity
  8
0
 62
     0
370
    -2
100
AcDbBlockReference
  2
_Oblique
 10
133.6564941371979
 20
0.0000000000000284
 30
0.0
 41
5.279999999999999
 42
5.279999999999999
 43
5.279999999999999
 50
270.0
  0
MTEXT
  5
161E
330
14BC
100
AcDbEntity
  8
0
 62
     0
100
AcDbMText
 10
133.6564941371979
 20
24.00000000000005
 30
0.0
 40
5.279999999999999
 41
0.0
 46
0.0
 71
     5
 72
     1
  1
\A1;4'
 73
     1
 44
1.0
  0
POINT
  5
161F
330
14BC
100
AcDbEntity
  8
Defpoints
 62
     0
100
AcDbPoint
 10
133.6564941371979
 20
48.00000000000003
 30
0.0
  0
POINT
  5
1620
330
14BC
100
AcDbEntity
  8
Defpoints
 62
     0
100
AcDbPoint
 10
133.6564941371979
 20
0.0000000000000284
 30
0.0
  0
POINT
  5
1621
330
14BC
100
AcDbEntity
  8
Defpoints
 62
     0
100
AcDbPoint
 10
133.6564941371979
 20
0.0000000000000284
 30
0.0
  0
ENDBLK
  5
14C6
330
14BC
100
AcDbEntity
  8
0
100
AcDbBlockEnd
  0
BLOCK
  5
14D2
330
14C7
100
AcDbEntity
  8
0
100
AcDbBlockBegin
  2
*D107
 70
     1
 10
0.0
 20
0.0
 30
0.0
  3
*D107
  1

  0
LINE
  5
1622
330
14C7
100
AcDbEntity
  8
0
 62
     0
370
    -2
100
AcDbLine
 10
253.1791352886303
 20
288.0
 30
0.0
 11
127.6564941371981
 21
288.0000000000001
 31
0.0
  0
LINE
  5
1623
330
14C7
100
AcDbEntity
  8
0
 62
     0
370
    -2
100
AcDbLine
 10
253.1791352886302
 20
182.0
 30
0.0
 11
127.656494137198
 21
182.0
 31
0.0
  0
LINE
  5
1624
330
14C7
100
AcDbEntity
  8
0
 62
     0
370
    -2
100
AcDbLine
 10
133.6564941371981
 20
288.0
 30
0.0
 11
133.6564941371981
 21
243.6763859111792
 31
0.0
  0
LINE
  5
1625
330
14C7
100
AcDbEntity
  8
0
 62
     0
370
    -2
100
AcDbLine
 10
133.656494137198
 20
182.0
 30
0.0
 11
133.6564941371981
 21
226.3236140888208
 31
0.0
  0
INSERT
  5
1626
330
14C7
100
AcDbEntity
  8
0
 62
     0
370
    -2
100
AcDbBlockReference
  2
_Oblique
 10
133.6564941371981
 20
288.0
 30
0.0
 41
5.279999999999999
 42
5.279999999999999
 43
5.279999999999999
 50
90.0
  0
INSERT
  5
1627
330
14C7
100
AcDbEntity
  8
0
 62
     0
370
    -2
100
AcDbBlockReference
  2
_Oblique
 10
133.656494137198
 20
182.0
 30
0.0
 41
5.279999999999999
 42
5.279999999999999
 43
5.279999999999999
 50
270.0
  0
MTEXT
  5
1628
330
14C7
100
AcDbEntity
  8
0
 62
     0
100
AcDbMText
 10
133.656494137198
 20
235.0000000000001
 30
0.0
 40
5.279999999999999
 41
0.0
 46
0.0
 71
     5
 72
     1
  1
\A1;8'-10"
 73
     1
 44
1.0
  0
POINT
  5
1629
330
14C7
100
AcDbEntity
  8
Defpoints
 62
     0
100
AcDbPoint
 10
259.1791352886303
 20
288.0
 30
0.0
  0
POINT
  5
162A
330
14C7
100
AcDbEntity
  8
Defpoints
 62
     0
100
AcDbPoint
 10
259.1791352886303
 20
182.0
 30
0.0
  0
POINT
  5
162B
330
14C7
100
AcDbEntity
  8
Defpoints
 62
     0
100
AcDbPoint
 10
133.656494137198
 20
182.0
 30
0.0
  0
ENDBLK
  5
14D3
330
14C7
100
AcDbEntity
  8
0
100
AcDbBlockEnd
  0
BLOCK
  5
14DF
330
14D4
100
AcDbEntity
  8
0
100
AcDbBlockBegin
  2
*D108
 70
     1
 10
0.0
 20
0.0
 30
0.0
  3
*D108
  1

  0
LINE
  5
162C
330
14D4
100
AcDbEntity
  8
0
 62
     0
370
    -2
100
AcDbLine
 10
217.1791352886303
 20
182.0
 30
0.0
 11
127.656494137198
 21
182.0
 31
0.0
  0
LINE
  5
162D
330
14D4
100
AcDbEntity
  8
0
 62
     0
370
    -2
100
AcDbLine
 10
217.1791352886303
 20
110.0
 30
0.0
 11
127.656494137198
 21
110.0
 31
0.0
  0
LINE
  5
162E
330
14D4
100
AcDbEntity
  8
0
 62
     0
370
    -2
100
AcDbLine
 10
133.656494137198
 20
182.0
 30
0.0
 11
133.656494137198
 21
154.6763859111792
 31
0.0
  0
LINE
  5
162F
330
14D4
100
AcDbEntity
  8
0
 62
     0
370
    -2
100
AcDbLine
 10
133.656494137198
 20
110.0
 30
0.0
 11
133.656494137198
 21
137.3236140888208
 31
0.0
  0
INSERT
  5
1630
330
14D4
100
AcDbEntity
  8
0
 62
     0
370
    -2
100
AcDbBlockReference
  2
_Oblique
 10
133.656494137198
 20
182.0
 30
0.0
 41
5.279999999999999
 42
5.279999999999999
 43
5.279999999999999
 50
90.0
  0
INSERT
  5
1631
330
14D4
100
AcDbEntity
  8
0
 62
     0
370
    -2
100
AcDbBlockReference
  2
_Oblique
 10
133.656494137198
 20
110.0
 30
0.0
 41
5.279999999999999
 42
5.279999999999999
 43
5.279999999999999
 50
270.0
  0
MTEXT
  5
1632
330
14D4
100
AcDbEntity
  8
0
 62
     0
100
AcDbMText
 10
133.656494137198
 20
146.0000000000001
 30
0.0
 40
5.279999999999999
 41
0.0
 46
0.0
 71
     5
 72
     1
  1
\A1;6'
 73
     1
 44
1.0
  0
POINT
  5
1633
330
14D4
100
AcDbEntity
  8
Defpoints
 62
     0
100
AcDbPoint
 10
223.1791352886303
 20
182.0
 30
0.0
  0
POINT
  5
1634
330
14D4
100
AcDbEntity
  8
Defpoints
 62
     0
100
AcDbPoint
 10
223.1791352886303
 20
110.0
 30
0.0
  0
POINT
  5
1635
330
14D4
100
AcDbEntity
  8
Defpoints
 62
     0
100
AcDbPoint
 10
133.656494137198
 20
110.0
 30
0.0
  0
ENDBLK
  5
14E0
330
14D4
100
AcDbEntity
  8
0
100
AcDbBlockEnd
  0
BLOCK
  5
14EC
330
14E1
100
AcDbEntity
  8
0
100
AcDbBlockBegin
  2
*D109
 70
     1
 10
0.0
 20
0.0
 30
0.0
  3
*D109
  1

  0
LINE
  5
1636
330
14E1
100
AcDbEntity
  8
0
 62
     0
370
    -2
100
AcDbLine
 10
157.1791352886303
 20
912.0
 30
0.0
 11
99.71793150602396
 21
912.0
 31
0.0
  0
LINE
  5
1637
330
14E1
100
AcDbEntity
  8
0
 62
     0
370
    -2
100
AcDbLine
 10
157.1791352886303
 20
576.0
 30
0.0
 11
99.71793150602389
 21
576.0
 31
0.0
  0
LINE
  5
1638
330
14E1
100
AcDbEntity
  8
0
 62
     0
370
    -2
100
AcDbLine
 10
105.717931506024
 20
912.0
 30
0.0
 11
105.7179315060239
 21
752.6763859111792
 31
0.0
  0
LINE
  5
1639
330
14E1
100
AcDbEntity
  8
0
 62
     0
370
    -2
100
AcDbLine
 10
105.7179315060239
 20
576.0
 30
0.0
 11
105.7179315060239
 21
735.3236140888208
 31
0.0
  0
INSERT
  5
163A
330
14E1
100
AcDbEntity
  8
0
 62
     0
370
    -2
100
AcDbBlockReference
  2
_Oblique
 10
105.717931506024
 20
912.0
 30
0.0
 41
5.279999999999999
 42
5.279999999999999
 43
5.279999999999999
 50
90.0
  0
INSERT
  5
163B
330
14E1
100
AcDbEntity
  8
0
 62
     0
370
    -2
100
AcDbBlockReference
  2
_Oblique
 10
105.7179315060239
 20
576.0
 30
0.0
 41
5.279999999999999
 42
5.279999999999999
 43
5.279999999999999
 50
270.0
  0
MTEXT
  5
163C
330
14E1
100
AcDbEntity
  8
0
 62
     0
100
AcDbMText
 10
105.7179315060238
 20
744.0
 30
0.0
 40
5.279999999999999
 41
0.0
 46
0.0
 71
     5
 72
     1
  1
\A1;28'
 73
     1
 44
1.0
  0
POINT
  5
163D
330
14E1
100
AcDbEntity
  8
Defpoints
 62
     0
100
AcDbPoint
 10
163.1791352886303
 20
912.0
 30
0.0
  0
POINT
  5
163E
330
14E1
100
AcDbEntity
  8
Defpoints
 62
     0
100
AcDbPoint
 10
163.1791352886303
 20
576.0
 30
0.0
  0
POINT
  5
163F
330
14E1
100
AcDbEntity
  8
Defpoints
 62
     0
100
AcDbPoint
 10
105.7179315060239
 20
576.0
 30
0.0
  0
ENDBLK
  5
14ED
330
14E1
100
AcDbEntity
  8
0
100
AcDbBlockEnd
  0
BLOCK
  5
14F8
330
14EE
100
AcDbEntity
  8
0
100
AcDbBlockBegin
  2
*D110
 70
     1
 10
0.0
 20
0.0
 30
0.0
  3
*D110
  1

  0
LINE
  5
1640
330
14EE
100
AcDbEntity
  8
0
 62
     0
370
    -2
100
AcDbLine
 10
157.1791352886303
 20
820.0
 30
0.0
 11
122.7969878743352
 21
820.0
 31
0.0
  0
LINE
  5
1641
330
14EE
100
AcDbEntity
  8
0
 62
     0
370
    -2
100
AcDbLine
 10
128.7969878743352
 20
820.0
 30
0.0
 11
128.7969878743352
 21
752.6763859111792
 31
0.0
  0
LINE
  5
1642
330
14EE
100
AcDbEntity
  8
0
 62
     0
370
    -2
100
AcDbLine
 10
128.7969878743352
 20
668.0
 30
0.0
 11
128.7969878743352
 21
735.3236140888208
 31
0.0
  0
INSERT
  5
1643
330
14EE
100
AcDbEntity
  8
0
 62
     0
370
    -2
100
AcDbBlockReference
  2
_Oblique
 10
128.7969878743352
 20
820.0
 30
0.0
 41
5.279999999999999
 42
5.279999999999999
 43
5.279999999999999
 50
90.0
  0
INSERT
  5
1644
330
14EE
100
AcDbEntity
  8
0
 62
     0
370
    -2
100
AcDbBlockReference
  2
_Oblique
 10
128.7969878743352
 20
668.0
 30
0.0
 41
5.279999999999999
 42
5.279999999999999
 43
5.279999999999999
 50
270.0
  0
MTEXT
  5
1645
330
14EE
100
AcDbEntity
  8
0
 62
     0
100
AcDbMText
 10
128.7969878743351
 20
744.0
 30
0.0
 40
5.279999999999999
 41
0.0
 46
0.0
 71
     5
 72
     1
  1
\A1;12'-8"
 73
     1
 44
1.0
  0
POINT
  5
1646
330
14EE
100
AcDbEntity
  8
Defpoints
 62
     0
100
AcDbPoint
 10
163.1791352886303
 20
820.0
 30
0.0
  0
POINT
  5
1647
330
14EE
100
AcDbEntity
  8
Defpoints
 62
     0
100
AcDbPoint
 10
128.7969878743352
 20
668.0
 30
0.0
  0
POINT
  5
1648
330
14EE
100
AcDbEntity
  8
Defpoints
 62
     0
100
AcDbPoint
 10
128.7969878743352
 20
668.0
 30
0.0
  0
ENDBLK
  5
14F9
330
14EE
100
AcDbEntity
  8
0
100
AcDbBlockEnd
  0
BLOCK
  5
1504
330
14FA
100
AcDbEntity
  8
0
100
AcDbBlockBegin
  2
*D111
 70
     1
 10
0.0
 20
0.0
 30
0.0
  3
*D111
  1

  0
LINE
  5
1649
330
14FA
100
AcDbEntity
  8
0
 62
     0
370
    -2
100
AcDbLine
 10
157.1791352886303
 20
576.0
 30
0.0
 11
122.7969878743352
 21
576.0
 31
0.0
  0
LINE
  5
164A
330
14FA
100
AcDbEntity
  8
0
 62
     0
370
    -2
100
AcDbLine
 10
128.7969878743352
 20
576.0
 30
0.0
 11
128.7969878743352
 21
613.3236140888208
 31
0.0
  0
LINE
  5
164B
330
14FA
100
AcDbEntity
  8
0
 62
     0
370
    -2
100
AcDbLine
 10
128.7969878743352
 20
668.0
 30
0.0
 11
128.7969878743352
 21
630.6763859111792
 31
0.0
  0
INSERT
  5
164C
330
14FA
100
AcDbEntity
  8
0
 62
     0
370
    -2
100
AcDbBlockReference
  2
_Oblique
 10
128.7969878743352
 20
576.0
 30
0.0
 41
5.279999999999999
 42
5.279999999999999
 43
5.279999999999999
 50
270.0
  0
INSERT
  5
164D
330
14FA
100
AcDbEntity
  8
0
 62
     0
370
    -2
100
AcDbBlockReference
  2
_Oblique
 10
128.7969878743352
 20
668.0
 30
0.0
 41
5.279999999999999
 42
5.279999999999999
 43
5.279999999999999
 50
90.0
  0
MTEXT
  5
164E
330
14FA
100
AcDbEntity
  8
0
 62
     0
100
AcDbMText
 10
128.7969878743351
 20
622.0
 30
0.0
 40
5.279999999999999
 41
0.0
 46
0.0
 71
     5
 72
     1
  1
\A1;7'-8"
 73
     1
 44
1.0
  0
POINT
  5
164F
330
14FA
100
AcDbEntity
  8
Defpoints
 62
     0
100
AcDbPoint
 10
163.1791352886303
 20
576.0
 30
0.0
  0
POINT
  5
1650
330
14FA
100
AcDbEntity
  8
Defpoints
 62
     0
100
AcDbPoint
 10
128.7969878743352
 20
668.0
 30
0.0
  0
POINT
  5
1651
330
14FA
100
AcDbEntity
  8
Defpoints
 62
     0
100
AcDbPoint
 10
128.7969878743352
 20
668.0
 30
0.0
  0
ENDBLK
  5
1505
330
14FA
100
AcDbEntity
  8
0
100
AcDbBlockEnd
  0
BLOCK
  5
1511
330
1506
100
AcDbEntity
  8
0
100
AcDbBlockBegin
  2
*D112
 70
     1
 10
0.0
 20
0.0
 30
0.0
  3
*D112
  1

  0
LINE
  5
1652
330
1506
100
AcDbEntity
  8
0
 62
     0
370
    -2
100
AcDbLine
 10
157.1791352886303
 20
912.0
 30
0.0
 11
122.7969878743352
 21
912.0
 31
0.0
  0
LINE
  5
1653
330
1506
100
AcDbEntity
  8
0
 62
     0
370
    -2
100
AcDbLine
 10
157.1791352886303
 20
820.0
 30
0.0
 11
122.7969878743352
 21
820.0
 31
0.0
  0
LINE
  5
1654
330
1506
100
AcDbEntity
  8
0
 62
     0
370
    -2
100
AcDbLine
 10
128.7969878743352
 20
912.0
 30
0.0
 11
128.7969878743352
 21
874.6763859111792
 31
0.0
  0
LINE
  5
1655
330
1506
100
AcDbEntity
  8
0
 62
     0
370
    -2
100
AcDbLine
 10
128.7969878743352
 20
820.0
 30
0.0
 11
128.7969878743352
 21
857.3236140888208
 31
0.0
  0
INSERT
  5
1656
330
1506
100
AcDbEntity
  8
0
 62
     0
370
    -2
100
AcDbBlockReference
  2
_Oblique
 10
128.7969878743352
 20
912.0
 30
0.0
 41
5.279999999999999
 42
5.279999999999999
 43
5.279999999999999
 50
90.0
  0
INSERT
  5
1657
330
1506
100
AcDbEntity
  8
0
 62
     0
370
    -2
100
AcDbBlockReference
  2
_Oblique
 10
128.7969878743352
 20
820.0
 30
0.0
 41
5.279999999999999
 42
5.279999999999999
 43
5.279999999999999
 50
270.0
  0
MTEXT
  5
1658
330
1506
100
AcDbEntity
  8
0
 62
     0
100
AcDbMText
 10
128.7969878743351
 20
866.0
 30
0.0
 40
5.279999999999999
 41
0.0
 46
0.0
 71
     5
 72
     1
  1
\A1;7'-8"
 73
     1
 44
1.0
  0
POINT
  5
1659
330
1506
100
AcDbEntity
  8
Defpoints
 62
     0
100
AcDbPoint
 10
163.1791352886303
 20
912.0
 30
0.0
  0
POINT
  5
165A
330
1506
100
AcDbEntity
  8
Defpoints
 62
     0
100
AcDbPoint
 10
163.1791352886303
 20
820.0
 30
0.0
  0
POINT
  5
165B
330
1506
100
AcDbEntity
  8
Defpoints
 62
     0
100
AcDbPoint
 10
128.7969878743352
 20
820.0
 30
0.0
  0
ENDBLK
  5
1512
330
1506
100
AcDbEntity
  8
0
100
AcDbBlockEnd
  0
BLOCK
  5
151E
330
1513
100
AcDbEntity
  8
0
100
AcDbBlockBegin
  2
*D113
 70
     1
 10
0.0
 20
0.0
 30
0.0
  3
*D113
  1

  0
LINE
  5
165C
330
1513
100
AcDbEntity
  8
0
 62
     0
370
    -2
100
AcDbLine
 10
505.1791352886303
 20
912.0
 30
0.0
 11
940.7199822841296
 21
911.9999999999999
 31
0.0
  0
LINE
  5
165D
330
1513
100
AcDbEntity
  8
0
 62
     0
370
    -2
100
AcDbLine
 10
793.1791352886303
 20
-0.0000000000000017
 30
0.0
 11
940.7199822841294
 21
-0.0000000000000435
 31
0.0
  0
LINE
  5
165E
330
1513
100
AcDbEntity
  8
0
 62
     0
370
    -2
100
AcDbLine
 10
934.7199822841296
 20
911.9999999999999
 30
0.0
 11
934.7199822841295
 21
464.6763859111791
 31
0.0
  0
LINE
  5
165F
330
1513
100
AcDbEntity
  8
0
 62
     0
370
    -2
100
AcDbLine
 10
934.7199822841294
 20
-0.0000000000000418
 30
0.0
 11
934.7199822841295
 21
447.3236140888207
 31
0.0
  0
INSERT
  5
1660
330
1513
100
AcDbEntity
  8
0
 62
     0
370
    -2
100
AcDbBlockReference
  2
_Oblique
 10
934.7199822841296
 20
911.9999999999999
 30
0.0
 41
5.279999999999999
 42
5.279999999999999
 43
5.279999999999999
 50
90.0
  0
INSERT
  5
1661
330
1513
100
AcDbEntity
  8
0
 62
     0
370
    -2
100
AcDbBlockReference
  2
_Oblique
 10
934.7199822841294
 20
-0.0000000000000418
 30
0.0
 41
5.279999999999999
 42
5.279999999999999
 43
5.279999999999999
 50
270.0
  0
MTEXT
  5
1662
330
1513
100
AcDbEntity
  8
0
 62
     0
100
AcDbMText
 10
934.7199822841294
 20
456.0000000000001
 30
0.0
 40
5.279999999999999
 41
0.0
 46
0.0
 71
     5
 72
     1
  1
\A1;76'
 73
     1
 44
1.0
  0
POINT
  5
1663
330
1513
100
AcDbEntity
  8
Defpoints
 62
     0
100
AcDbPoint
 10
499.1791352886303
 20
912.0
 30
0.0
  0
POINT
  5
1664
330
1513
100
AcDbEntity
  8
Defpoints
 62
     0
100
AcDbPoint
 10
787.1791352886303
 20
0.0
 30
0.0
  0
POINT
  5
1665
330
1513
100
AcDbEntity
  8
Defpoints
 62
     0
100
AcDbPoint
 10
934.7199822841294
 20
-0.0000000000000418
 30
0.0
  0
ENDBLK
  5
151F
330
1513
100
AcDbEntity
  8
0
100
AcDbBlockEnd
  0
BLOCK
  5
152B
330
1520
100
AcDbEntity
  8
0
100
AcDbBlockBegin
  2
*D114
 70
     1
 10
0.0
 20
0.0
 30
0.0
  3
*D114
  1

  0
LINE
  5
1666
330
1520
100
AcDbEntity
  8
0
 62
     0
370
    -2
100
AcDbLine
 10
505.1791352886303
 20
912.0
 30
0.0
 11
911.2911711648295
 21
911.9999999999999
 31
0.0
  0
LINE
  5
1667
330
1520
100
AcDbEntity
  8
0
 62
     0
370
    -2
100
AcDbLine
 10
505.1791352886303
 20
384.0
 30
0.0
 11
911.2911711648294
 21
383.9999999999999
 31
0.0
  0
LINE
  5
1668
330
1520
100
AcDbEntity
  8
0
 62
     0
370
    -2
100
AcDbLine
 10
905.2911711648295
 20
911.9999999999999
 30
0.0
 11
905.2911711648294
 21
656.6399999999999
 31
0.0
  0
LINE
  5
1669
330
1520
100
AcDbEntity
  8
0
 62
     0
370
    -2
100
AcDbLine
 10
905.2911711648294
 20
383.9999999999999
 30
0.0
 11
905.2911711648294
 21
639.3599999999999
 31
0.0
  0
INSERT
  5
166A
330
1520
100
AcDbEntity
  8
0
 62
     0
370
    -2
100
AcDbBlockReference
  2
_Oblique
 10
905.2911711648295
 20
911.9999999999999
 30
0.0
 41
5.279999999999999
 42
5.279999999999999
 43
5.279999999999999
 50
90.0
  0
INSERT
  5
166B
330
1520
100
AcDbEntity
  8
0
 62
     0
370
    -2
100
AcDbBlockReference
  2
_Oblique
 10
905.2911711648294
 20
383.9999999999999
 30
0.0
 41
5.279999999999999
 42
5.279999999999999
 43
5.279999999999999
 50
270.0
  0
MTEXT
  5
166C
330
1520
100
AcDbEntity
  8
0
 62
     0
100
AcDbMText
 10
905.2911711648293
 20
648.0000000000001
 30
0.0
 40
5.279999999999999
 41
0.0
 46
0.0
 71
     5
 72
     1
  1
\A1;44'
 73
     1
 44
1.0
  0
POINT
  5
166D
330
1520
100
AcDbEntity
  8
Defpoints
 62
     0
100
AcDbPoint
 10
499.1791352886303
 20
912.0
 30
0.0
  0
POINT
  5
166E
330
1520
100
AcDbEntity
  8
Defpoints
 62
     0
100
AcDbPoint
 10
499.1791352886303
 20
384.0
 30
0.0
  0
POINT
  5
166F
330
1520
100
AcDbEntity
  8
Defpoints
 62
     0
100
AcDbPoint
 10
905.2911711648294
 20
383.9999999999999
 30
0.0
  0
ENDBLK
  5
152C
330
1520
100
AcDbEntity
  8
0
100
AcDbBlockEnd
  0
BLOCK
  5
1538
330
152D
100
AcDbEntity
  8
0
100
AcDbBlockBegin
  2
*D115
 70
     1
 10
0.0
 20
0.0
 30
0.0
  3
*D115
  1

  0
LINE
  5
1670
330
152D
100
AcDbEntity
  8
0
 62
     0
370
    -2
100
AcDbLine
 10
793.1791352886303
 20
292.0
 30
0.0
 11
875.5030068145517
 21
292.0
 31
0.0
  0
LINE
  5
1671
330
152D
100
AcDbEntity
  8
0
 62
     0
370
    -2
100
AcDbLine
 10
793.1791352886303
 20
92.0
 30
0.0
 11
875.5030068145516
 21
91.99999999999997
 31
0.0
  0
LINE
  5
1672
330
152D
100
AcDbEntity
  8
0
 62
     0
370
    -2
100
AcDbLine
 10
869.5030068145517
 20
292.0
 30
0.0
 11
869.5030068145516
 21
200.6763859111792
 31
0.0
  0
LINE
  5
1673
330
152D
100
AcDbEntity
  8
0
 62
     0
370
    -2
100
AcDbLine
 10
869.5030068145516
 20
91.99999999999997
 30
0.0
 11
869.5030068145516
 21
183.3236140888208
 31
0.0
  0
INSERT
  5
1674
330
152D
100
AcDbEntity
  8
0
 62
     0
370
    -2
100
AcDbBlockReference
  2
_Oblique
 10
869.5030068145517
 20
292.0
 30
0.0
 41
5.279999999999999
 42
5.279999999999999
 43
5.279999999999999
 50
90.0
  0
INSERT
  5
1675
330
152D
100
AcDbEntity
  8
0
 62
     0
370
    -2
100
AcDbBlockReference
  2
_Oblique
 10
869.5030068145516
 20
91.99999999999997
 30
0.0
 41
5.279999999999999
 42
5.279999999999999
 43
5.279999999999999
 50
270.0
  0
MTEXT
  5
1676
330
152D
100
AcDbEntity
  8
0
 62
     0
100
AcDbMText
 10
869.5030068145516
 20
192.0000000000001
 30
0.0
 40
5.279999999999999
 41
0.0
 46
0.0
 71
     5
 72
     1
  1
\A1;16'-8"
 73
     1
 44
1.0
  0
POINT
  5
1677
330
152D
100
AcDbEntity
  8
Defpoints
 62
     0
100
AcDbPoint
 10
787.1791352886303
 20
292.0
 30
0.0
  0
POINT
  5
1678
330
152D
100
AcDbEntity
  8
Defpoints
 62
     0
100
AcDbPoint
 10
787.1791352886303
 20
92.0
 30
0.0
  0
POINT
  5
1679
330
152D
100
AcDbEntity
  8
Defpoints
 62
     0
100
AcDbPoint
 10
869.5030068145516
 20
91.99999999999997
 30
0.0
  0
ENDBLK
  5
1539
330
152D
100
AcDbEntity
  8
0
100
AcDbBlockEnd
  0
BLOCK
  5
1545
330
153A
100
AcDbEntity
  8
0
100
AcDbBlockBegin
  2
*D116
 70
     1
 10
0.0
 20
0.0
 30
0.0
  3
*D116
  1

  0
LINE
  5
167A
330
153A
100
AcDbEntity
  8
0
 62
     0
370
    -2
100
AcDbLine
 10
793.1791352886303
 20
384.0
 30
0.0
 11
911.2911711648294
 21
383.9999999999999
 31
0.0
  0
LINE
  5
167B
330
153A
100
AcDbEntity
  8
0
 62
     0
370
    -2
100
AcDbLine
 10
793.1791352886303
 20
-0.0000000000000017
 30
0.0
 11
911.2911711648293
 21
-0.0000000000000352
 31
0.0
  0
LINE
  5
167C
330
153A
100
AcDbEntity
  8
0
 62
     0
370
    -2
100
AcDbLine
 10
905.2911711648294
 20
383.9999999999999
 30
0.0
 11
905.2911711648293
 21
200.6763859111792
 31
0.0
  0
LINE
  5
167D
330
153A
100
AcDbEntity
  8
0
 62
     0
370
    -2
100
AcDbLine
 10
905.2911711648293
 20
-0.0000000000000335
 30
0.0
 11
905.2911711648293
 21
183.3236140888208
 31
0.0
  0
INSERT
  5
167E
330
153A
100
AcDbEntity
  8
0
 62
     0
370
    -2
100
AcDbBlockReference
  2
_Oblique
 10
905.2911711648294
 20
383.9999999999999
 30
0.0
 41
5.279999999999999
 42
5.279999999999999
 43
5.279999999999999
 50
90.0
  0
INSERT
  5
167F
330
153A
100
AcDbEntity
  8
0
 62
     0
370
    -2
100
AcDbBlockReference
  2
_Oblique
 10
905.2911711648293
 20
-0.0000000000000335
 30
0.0
 41
5.279999999999999
 42
5.279999999999999
 43
5.279999999999999
 50
270.0
  0
MTEXT
  5
1680
330
153A
100
AcDbEntity
  8
0
 62
     0
100
AcDbMText
 10
905.2911711648293
 20
192.0000000000001
 30
0.0
 40
5.279999999999999
 41
0.0
 46
0.0
 71
     5
 72
     1
  1
\A1;32'
 73
     1
 44
1.0
  0
POINT
  5
1681
330
153A
100
AcDbEntity
  8
Defpoints
 62
     0
100
AcDbPoint
 10
787.1791352886303
 20
384.0
 30
0.0
  0
POINT
  5
1682
330
153A
100
AcDbEntity
  8
Defpoints
 62
     0
100
AcDbPoint
 10
787.1791352886303
 20
0.0
 30
0.0
  0
POINT
  5
1683
330
153A
100
AcDbEntity
  8
Defpoints
 62
     0
100
AcDbPoint
 10
905.2911711648293
 20
-0.0000000000000335
 30
0.0
  0
ENDBLK
  5
1546
330
153A
100
AcDbEntity
  8
0
100
AcDbBlockEnd
  0
BLOCK
  5
1552
330
1547
100
AcDbEntity
  8
0
100
AcDbBlockBegin
  2
*D117
 70
     1
 10
0.0
 20
0.0
 30
0.0
  3
*D117
  1

  0
LINE
  5
1684
330
1547
100
AcDbEntity
  8
0
 62
     0
370
    -2
100
AcDbLine
 10
793.1791352886303
 20
92.0
 30
0.0
 11
875.5030068145516
 21
91.99999999999997
 31
0.0
  0
LINE
  5
1685
330
1547
100
AcDbEntity
  8
0
 62
     0
370
    -2
100
AcDbLine
 10
793.1791352886303
 20
-0.0000000000000017
 30
0.0
 11
875.5030068145516
 21
-0.000000000000025
 31
0.0
  0
LINE
  5
1686
330
1547
100
AcDbEntity
  8
0
 62
     0
370
    -2
100
AcDbLine
 10
869.5030068145516
 20
91.99999999999997
 30
0.0
 11
869.5030068145516
 21
54.67638591117915
 31
0.0
  0
LINE
  5
1687
330
1547
100
AcDbEntity
  8
0
 62
     0
370
    -2
100
AcDbLine
 10
869.5030068145516
 20
-0.0000000000000233
 30
0.0
 11
869.5030068145516
 21
37.3236140888208
 31
0.0
  0
INSERT
  5
1688
330
1547
100
AcDbEntity
  8
0
 62
     0
370
    -2
100
AcDbBlockReference
  2
_Oblique
 10
869.5030068145516
 20
91.99999999999997
 30
0.0
 41
5.279999999999999
 42
5.279999999999999
 43
5.279999999999999
 50
90.0
  0
INSERT
  5
1689
330
1547
100
AcDbEntity
  8
0
 62
     0
370
    -2
100
AcDbBlockReference
  2
_Oblique
 10
869.5030068145516
 20
-0.0000000000000233
 30
0.0
 41
5.279999999999999
 42
5.279999999999999
 43
5.279999999999999
 50
270.0
  0
MTEXT
  5
168A
330
1547
100
AcDbEntity
  8
0
 62
     0
100
AcDbMText
 10
869.5030068145516
 20
46.00000000000012
 30
0.0
 40
5.279999999999999
 41
0.0
 46
0.0
 71
     5
 72
     1
  1
\A1;7'-8"
 73
     1
 44
1.0
  0
POINT
  5
168B
330
1547
100
AcDbEntity
  8
Defpoints
 62
     0
100
AcDbPoint
 10
787.1791352886303
 20
92.0
 30
0.0
  0
POINT
  5
168C
330
1547
100
AcDbEntity
  8
Defpoints
 62
     0
100
AcDbPoint
 10
787.1791352886303
 20
0.0
 30
0.0
  0
POINT
  5
168D
330
1547
100
AcDbEntity
  8
Defpoints
 62
     0
100
AcDbPoint
 10
869.5030068145516
 20
-0.0000000000000233
 30
0.0
  0
ENDBLK
  5
1553
330
1547
100
AcDbEntity
  8
0
100
AcDbBlockEnd
  0
BLOCK
  5
155F
330
1554
100
AcDbEntity
  8
0
100
AcDbBlockBegin
  2
*D118
 70
     1
 10
0.0
 20
0.0
 30
0.0
  3
*D118
  1

  0
LINE
  5
168E
330
1554
100
AcDbEntity
  8
0
 62
     0
370
    -2
100
AcDbLine
 10
793.1791352886303
 20
292.0
 30
0.0
 11
875.5030068145517
 21
292.0
 31
0.0
  0
LINE
  5
168F
330
1554
100
AcDbEntity
  8
0
 62
     0
370
    -2
100
AcDbLine
 10
793.1791352886303
 20
384.0
 30
0.0
 11
875.5030068145517
 21
384.0
 31
0.0
  0
LINE
  5
1690
330
1554
100
AcDbEntity
  8
0
 62
     0
370
    -2
100
AcDbLine
 10
869.5030068145517
 20
292.0
 30
0.0
 11
869.5030068145517
 21
329.3236140888208
 31
0.0
  0
LINE
  5
1691
330
1554
100
AcDbEntity
  8
0
 62
     0
370
    -2
100
AcDbLine
 10
869.5030068145517
 20
384.0
 30
0.0
 11
869.5030068145517
 21
346.6763859111792
 31
0.0
  0
INSERT
  5
1692
330
1554
100
AcDbEntity
  8
0
 62
     0
370
    -2
100
AcDbBlockReference
  2
_Oblique
 10
869.5030068145517
 20
292.0
 30
0.0
 41
5.279999999999999
 42
5.279999999999999
 43
5.279999999999999
 50
270.0
  0
INSERT
  5
1693
330
1554
100
AcDbEntity
  8
0
 62
     0
370
    -2
100
AcDbBlockReference
  2
_Oblique
 10
869.5030068145517
 20
384.0
 30
0.0
 41
5.279999999999999
 42
5.279999999999999
 43
5.279999999999999
 50
90.0
  0
MTEXT
  5
1694
330
1554
100
AcDbEntity
  8
0
 62
     0
100
AcDbMText
 10
869.5030068145516
 20
338.0000000000001
 30
0.0
 40
5.279999999999999
 41
0.0
 46
0.0
 71
     5
 72
     1
  1
\A1;7'-8"
 73
     1
 44
1.0
  0
POINT
  5
1695
330
1554
100
AcDbEntity
  8
Defpoints
 62
     0
100
AcDbPoint
 10
787.1791352886303
 20
292.0
 30
0.0
  0
POINT
  5
1696
330
1554
100
AcDbEntity
  8
Defpoints
 62
     0
100
AcDbPoint
 10
787.1791352886303
 20
384.0
 30
0.0
  0
POINT
  5
1697
330
1554
100
AcDbEntity
  8
Defpoints
 62
     0
100
AcDbPoint
 10
869.5030068145517
 20
384.0
 30
0.0
  0
ENDBLK
  5
1560
330
1554
100
AcDbEntity
  8
0
100
AcDbBlockEnd
  0
BLOCK
  5
156A
330
1561
100
AcDbEntity
  8
0
100
AcDbBlockBegin
  2
*D119
 70
     1
 10
0.0
 20
0.0
 30
0.0
  3
*D119
  1

  0
LINE
  5
1698
330
1561
100
AcDbEntity
  8
0
 62
     0
370
    -2
100
AcDbLine
 10
532.6309056910095
 20
668.0
 30
0.0
 11
532.6309056910095
 21
534.6763859111792
 31
0.0
  0
LINE
  5
1699
330
1561
100
AcDbEntity
  8
0
 62
     0
370
    -2
100
AcDbLine
 10
532.6309056910095
 20
384.0
 30
0.0
 11
532.6309056910095
 21
517.3236140888208
 31
0.0
  0
INSERT
  5
169A
330
1561
100
AcDbEntity
  8
0
 62
     0
370
    -2
100
AcDbBlockReference
  2
_Oblique
 10
532.6309056910095
 20
668.0
 30
0.0
 41
5.279999999999999
 42
5.279999999999999
 43
5.279999999999999
 50
90.0
  0
INSERT
  5
169B
330
1561
100
AcDbEntity
  8
0
 62
     0
370
    -2
100
AcDbBlockReference
  2
_Oblique
 10
532.6309056910095
 20
384.0
 30
0.0
 41
5.279999999999999
 42
5.279999999999999
 43
5.279999999999999
 50
270.0
  0
MTEXT
  5
169C
330
1561
100
AcDbEntity
  8
0
 62
     0
100
AcDbMText
 10
532.6309056910094
 20
526.0000000000001
 30
0.0
 40
5.279999999999999
 41
0.0
 46
0.0
 71
     5
 72
     1
  1
\A1;23'-8"
 73
     1
 44
1.0
  0
POINT
  5
169D
330
1561
100
AcDbEntity
  8
Defpoints
 62
     0
100
AcDbPoint
 10
532.6309056910095
 20
668.0
 30
0.0
  0
POINT
  5
169E
330
1561
100
AcDbEntity
  8
Defpoints
 62
     0
100
AcDbPoint
 10
532.6309056910095
 20
384.0
 30
0.0
  0
POINT
  5
169F
330
1561
100
AcDbEntity
  8
Defpoints
 62
     0
100
AcDbPoint
 10
532.6309056910095
 20
384.0
 30
0.0
  0
ENDBLK
  5
156B
330
1561
100
AcDbEntity
  8
0
100
AcDbBlockEnd
  0
BLOCK
  5
1577
330
156C
100
AcDbEntity
  8
0
100
AcDbBlockBegin
  2
*D120
 70
     1
 10
0.0
 20
0.0
 30
0.0
  3
*D120
  1

  0
LINE
  5
16A0
330
156C
100
AcDbEntity
  8
0
 62
     0
370
    -2
100
AcDbLine
 10
787.1791352886303
 20
390.0
 30
0.0
 11
787.1791352886303
 21
424.3120396104589
 31
0.0
  0
LINE
  5
16A1
330
156C
100
AcDbEntity
  8
0
 62
     0
370
    -2
100
AcDbLine
 10
691.1791352886303
 20
390.0
 30
0.0
 11
691.1791352886303
 21
424.3120396104589
 31
0.0
  0
LINE
  5
16A2
330
156C
100
AcDbEntity
  8
0
 62
     0
370
    -2
100
AcDbLine
 10
787.1791352886303
 20
418.3120396104589
 30
0.0
 11
747.4229331446793
 21
418.3120396104589
 31
0.0
  0
LINE
  5
16A3
330
156C
100
AcDbEntity
  8
0
 62
     0
370
    -2
100
AcDbLine
 10
691.1791352886303
 20
418.3120396104589
 30
0.0
 11
730.9353374325813
 21
418.3120396104589
 31
0.0
  0
INSERT
  5
16A4
330
156C
100
AcDbEntity
  8
0
 62
     0
370
    -2
100
AcDbBlockReference
  2
_Oblique
 10
787.1791352886303
 20
418.3120396104589
 30
0.0
 41
5.279999999999999
 42
5.279999999999999
 43
5.279999999999999
  0
INSERT
  5
16A5
330
156C
100
AcDbEntity
  8
0
 62
     0
370
    -2
100
AcDbBlockReference
  2
_Oblique
 10
691.1791352886303
 20
418.3120396104589
 30
0.0
 41
5.279999999999999
 42
5.279999999999999
 43
5.279999999999999
 50
180.0
  0
MTEXT
  5
16A6
330
156C
100
AcDbEntity
  8
0
 62
     0
100
AcDbMText
 10
739.1791352886303
 20
418.3120396104589
 30
0.0
 40
5.279999999999999
 41
0.0
 46
0.0
 71
     5
 72
     1
  1
\A1;8'
 73
     1
 44
1.0
  0
POINT
  5
16A7
330
156C
100
AcDbEntity
  8
Defpoints
 62
     0
100
AcDbPoint
 10
787.1791352886303
 20
384.0
 30
0.0
  0
POINT
  5
16A8
330
156C
100
AcDbEntity
  8
Defpoints
 62
     0
100
AcDbPoint
 10
691.1791352886303
 20
384.0
 30
0.0
  0
POINT
  5
16A9
330
156C
100
AcDbEntity
  8
Defpoints
 62
     0
100
AcDbPoint
 10
691.1791352886303
 20
418.3120396104589
 30
0.0
  0
ENDBLK
  5
1578
330
156C
100
AcDbEntity
  8
0
100
AcDbBlockEnd
  0
BLOCK
  5
1582
330
1579
100
AcDbEntity
  8
0
100
AcDbBlockBegin
  2
*D121
 70
     1
 10
0.0
 20
0.0
 30
0.0
  3
*D121
  1

  0
LINE
  5
16AA
330
1579
100
AcDbEntity
  8
0
 62
     0
370
    -2
100
AcDbLine
 10
537.1791352886303
 20
418.3120396104589
 30
0.0
 11
531.1126728077727
 21
418.3120396104589
 31
0.0
  0
LINE
  5
16AB
330
1579
100
AcDbEntity
  8
0
 62
     0
370
    -2
100
AcDbLine
 10
499.1791352886303
 20
418.3120396104589
 30
0.0
 11
505.2455977694879
 21
418.3120396104589
 31
0.0
  0
INSERT
  5
16AC
330
1579
100
AcDbEntity
  8
0
 62
     0
370
    -2
100
AcDbBlockReference
  2
_Oblique
 10
537.1791352886303
 20
418.3120396104589
 30
0.0
 41
5.279999999999999
 42
5.279999999999999
 43
5.279999999999999
  0
INSERT
  5
16AD
330
1579
100
AcDbEntity
  8
0
 62
     0
370
    -2
100
AcDbBlockReference
  2
_Oblique
 10
499.1791352886303
 20
418.3120396104589
 30
0.0
 41
5.279999999999999
 42
5.279999999999999
 43
5.279999999999999
 50
180.0
  0
MTEXT
  5
16AE
330
1579
100
AcDbEntity
  8
0
 62
     0
100
AcDbMText
 10
518.1791352886303
 20
418.3120396104589
 30
0.0
 40
5.279999999999999
 41
0.0
 46
0.0
 71
     5
 72
     1
  1
\A1;3'-2"
 73
     1
 44
1.0
  0
POINT
  5
16AF
330
1579
100
AcDbEntity
  8
Defpoints
 62
     0
100
AcDbPoint
 10
537.1791352886303
 20
418.3120396104589
 30
0.0
  0
POINT
  5
16B0
330
1579
100
AcDbEntity
  8
Defpoints
 62
     0
100
AcDbPoint
 10
499.1791352886303
 20
418.3120396104589
 30
0.0
  0
POINT
  5
16B1
330
1579
100
AcDbEntity
  8
Defpoints
 62
     0
100
AcDbPoint
 10
499.1791352886303
 20
418.3120396104589
 30
0.0
  0
ENDBLK
  5
1583
330
1579
100
AcDbEntity
  8
0
100
AcDbBlockEnd
  0
BLOCK
  5
158D
330
1584
100
AcDbEntity
  8
0
100
AcDbBlockBegin
  2
*D122
 70
     1
 10
0.0
 20
0.0
 30
0.0
  3
*D122
  1

  0
LINE
  5
16B2
330
1584
100
AcDbEntity
  8
0
 62
     0
370
    -2
100
AcDbLine
 10
691.1791352886303
 20
418.3120396104589
 30
0.0
 11
630.6380633131325
 21
418.3120396104589
 31
0.0
  0
LINE
  5
16B3
330
1584
100
AcDbEntity
  8
0
 62
     0
370
    -2
100
AcDbLine
 10
537.1791352886303
 20
418.3120396104589
 30
0.0
 11
597.720207264128
 21
418.3120396104589
 31
0.0
  0
INSERT
  5
16B4
330
1584
100
AcDbEntity
  8
0
 62
     0
370
    -2
100
AcDbBlockReference
  2
_Oblique
 10
691.1791352886303
 20
418.3120396104589
 30
0.0
 41
5.279999999999999
 42
5.279999999999999
 43
5.279999999999999
  0
INSERT
  5
16B5
330
1584
100
AcDbEntity
  8
0
 62
     0
370
    -2
100
AcDbBlockReference
  2
_Oblique
 10
537.1791352886303
 20
418.3120396104589
 30
0.0
 41
5.279999999999999
 42
5.279999999999999
 43
5.279999999999999
 50
180.0
  0
MTEXT
  5
16B6
330
1584
100
AcDbEntity
  8
0
 62
     0
100
AcDbMText
 10
614.1791352886303
 20
418.3120396104589
 30
0.0
 40
5.279999999999999
 41
0.0
 46
0.0
 71
     5
 72
     1
  1
\A1;12'-10"
 73
     1
 44
1.0
  0
POINT
  5
16B7
330
1584
100
AcDbEntity
  8
Defpoints
 62
     0
100
AcDbPoint
 10
691.1791352886303
 20
418.3120396104589
 30
0.0
  0
POINT
  5
16B8
330
1584
100
AcDbEntity
  8
Defpoints
 62
     0
100
AcDbPoint
 10
537.1791352886303
 20
418.3120396104589
 30
0.0
  0
POINT
  5
16B9
330
1584
100
AcDbEntity
  8
Defpoints
 62
     0
100
AcDbPoint
 10
537.1791352886303
 20
418.3120396104589
 30
0.0
  0
ENDBLK
  5
158E
330
1584
100
AcDbEntity
  8
0
100
AcDbBlockEnd
  0
BLOCK
  5
1598
330
158F
100
AcDbEntity
  8
0
100
AcDbBlockBegin
  2
*D123
 70
     1
 10
0.0
 20
0.0
 30
0.0
  3
*D123
  1

  0
LINE
  5
16BA
330
158F
100
AcDbEntity
  8
0
 62
     0
370
    -2
100
AcDbLine
 10
532.6309056910096
 20
820.0
 30
0.0
 11
532.6309056910095
 21
752.6763859111792
 31
0.0
  0
LINE
  5
16BB
330
158F
100
AcDbEntity
  8
0
 62
     0
370
    -2
100
AcDbLine
 10
532.6309056910095
 20
668.0
 30
0.0
 11
532.6309056910095
 21
735.3236140888208
 31
0.0
  0
INSERT
  5
16BC
330
158F
100
AcDbEntity
  8
0
 62
     0
370
    -2
100
AcDbBlockReference
  2
_Oblique
 10
532.6309056910096
 20
820.0
 30
0.0
 41
5.279999999999999
 42
5.279999999999999
 43
5.279999999999999
 50
90.0
  0
INSERT
  5
16BD
330
158F
100
AcDbEntity
  8
0
 62
     0
370
    -2
100
AcDbBlockReference
  2
_Oblique
 10
532.6309056910095
 20
668.0
 30
0.0
 41
5.279999999999999
 42
5.279999999999999
 43
5.279999999999999
 50
270.0
  0
MTEXT
  5
16BE
330
158F
100
AcDbEntity
  8
0
 62
     0
100
AcDbMText
 10
532.6309056910094
 20
744.0000000000001
 30
0.0
 40
5.279999999999999
 41
0.0
 46
0.0
 71
     5
 72
     1
  1
\A1;12'-8"
 73
     1
 44
1.0
  0
POINT
  5
16BF
330
158F
100
AcDbEntity
  8
Defpoints
 62
     0
100
AcDbPoint
 10
532.6309056910095
 20
820.0
 30
0.0
  0
POINT
  5
16C0
330
158F
100
AcDbEntity
  8
Defpoints
 62
     0
100
AcDbPoint
 10
532.6309056910095
 20
668.0
 30
0.0
  0
POINT
  5
16C1
330
158F
100
AcDbEntity
  8
Defpoints
 62
     0
100
AcDbPoint
 10
532.6309056910095
 20
668.0
 30
0.0
  0
ENDBLK
  5
1599
330
158F
100
AcDbEntity
  8
0
100
AcDbBlockEnd
  0
BLOCK
  5
15A5
330
159A
100
AcDbEntity
  8
0
100
AcDbBlockBegin
  2
*D124
 70
     1
 10
0.0
 20
0.0
 30
0.0
  3
*D124
  1

  0
LINE
  5
16C2
330
159A
100
AcDbEntity
  8
0
 62
     0
370
    -2
100
AcDbLine
 10
505.1791352886303
 20
912.0
 30
0.0
 11
538.6309056910095
 21
912.0
 31
0.0
  0
LINE
  5
16C3
330
159A
100
AcDbEntity
  8
0
 62
     0
370
    -2
100
AcDbLine
 10
505.1791352886303
 20
820.0
 30
0.0
 11
538.6309056910095
 21
820.0
 31
0.0
  0
LINE
  5
16C4
330
159A
100
AcDbEntity
  8
0
 62
     0
370
    -2
100
AcDbLine
 10
532.6309056910095
 20
912.0
 30
0.0
 11
532.6309056910095
 21
874.6763859111792
 31
0.0
  0
LINE
  5
16C5
330
159A
100
AcDbEntity
  8
0
 62
     0
370
    -2
100
AcDbLine
 10
532.6309056910095
 20
820.0
 30
0.0
 11
532.6309056910095
 21
857.3236140888208
 31
0.0
  0
INSERT
  5
16C6
330
159A
100
AcDbEntity
  8
0
 62
     0
370
    -2
100
AcDbBlockReference
  2
_Oblique
 10
532.6309056910095
 20
912.0
 30
0.0
 41
5.279999999999999
 42
5.279999999999999
 43
5.279999999999999
 50
90.0
  0
INSERT
  5
16C7
330
159A
100
AcDbEntity
  8
0
 62
     0
370
    -2
100
AcDbBlockReference
  2
_Oblique
 10
532.6309056910095
 20
820.0
 30
0.0
 41
5.279999999999999
 42
5.279999999999999
 43
5.279999999999999
 50
270.0
  0
MTEXT
  5
16C8
330
159A
100
AcDbEntity
  8
0
 62
     0
100
AcDbMText
 10
532.6309056910093
 20
866.0000000000001
 30
0.0
 40
5.279999999999999
 41
0.0
 46
0.0
 71
     5
 72
     1
  1
\A1;7'-8"
 73
     1
 44
1.0
  0
POINT
  5
16C9
330
159A
100
AcDbEntity
  8
Defpoints
 62
     0
100
AcDbPoint
 10
499.1791352886303
 20
912.0
 30
0.0
  0
POINT
  5
16CA
330
159A
100
AcDbEntity
  8
Defpoints
 62
     0
100
AcDbPoint
 10
499.1791352886303
 20
820.0
 30
0.0
  0
POINT
  5
16CB
330
159A
100
AcDbEntity
  8
Defpoints
 62
     0
100
AcDbPoint
 10
532.6309056910095
 20
820.0
 30
0.0
  0
ENDBLK
  5
15A6
330
159A
100
AcDbEntity
  8
0
100
AcDbBlockEnd
  0
BLOCK
  5
16FA
330
16EF
100
AcDbEntity
  8
0
100
AcDbBlockBegin
  2
*D126
 70
     1
 10
0.0
 20
0.0
 30
0.0
  3
*D126
  1

  0
LINE
  5
16F0
330
16EF
100
AcDbEntity
  8
0
 62
     0
370
    -2
100
AcDbLine
 10
499.1791352886303
 20
-16.0
 30
0.0
 11
514.9772221856138
 21
-16.00000000000001
 31
0.0
  0
LINE
  5
16F1
330
16EF
100
AcDbEntity
  8
0
 62
     0
370
    -2
100
AcDbLine
 10
499.1791352886303
 20
-90.0
 30
0.0
 11
514.9772221856138
 21
-90.0
 31
0.0
  0
LINE
  5
16F2
330
16EF
100
AcDbEntity
  8
0
 62
     0
370
    -2
100
AcDbLine
 10
508.9772221856138
 20
-16.0
 30
0.0
 11
508.9772221856138
 21
-44.32361408882083
 31
0.0
  0
LINE
  5
16F3
330
16EF
100
AcDbEntity
  8
0
 62
     0
370
    -2
100
AcDbLine
 10
508.9772221856138
 20
-90.0
 30
0.0
 11
508.9772221856138
 21
-61.67638591117917
 31
0.0
  0
INSERT
  5
16F4
330
16EF
100
AcDbEntity
  8
0
 62
     0
370
    -2
100
AcDbBlockReference
  2
_Oblique
 10
508.9772221856138
 20
-16.0
 30
0.0
 41
5.279999999999999
 42
5.279999999999999
 43
5.279999999999999
 50
90.0
  0
INSERT
  5
16F5
330
16EF
100
AcDbEntity
  8
0
 62
     0
370
    -2
100
AcDbBlockReference
  2
_Oblique
 10
508.9772221856138
 20
-90.0
 30
0.0
 41
5.279999999999999
 42
5.279999999999999
 43
5.279999999999999
 50
270.0
  0
MTEXT
  5
16F6
330
16EF
100
AcDbEntity
  8
0
 62
     0
100
AcDbMText
 10
508.9772221856138
 20
-52.99999999999991
 30
0.0
 40
5.279999999999999
 41
0.0
 46
0.0
 71
     5
 72
     1
  1
\A1;6'-2"
 73
     1
 44
1.0
  0
POINT
  5
16F7
330
16EF
100
AcDbEntity
  8
Defpoints
 62
     0
100
AcDbPoint
 10
493.1791352886303
 20
-16.0
 30
0.0
  0
POINT
  5
16F8
330
16EF
100
AcDbEntity
  8
Defpoints
 62
     0
100
AcDbPoint
 10
493.1791352886303
 20
-90.0
 30
0.0
  0
POINT
  5
16F9
330
16EF
100
AcDbEntity
  8
Defpoints
 62
     0
100
AcDbPoint
 10
508.9772221856138
 20
-90.0
 30
0.0
  0
ENDBLK
  5
16FB
330
16EF
100
AcDbEntity
  8
0
100
AcDbBlockEnd
  0
ENDSEC
  0
SECTION
  2
ENTITIES
  0
LINE
  5
30
330
1F
100
AcDbEntity
  8
0
100
AcDbLine
 10
276.6791352886303
 20
576.0
 30
0.0
 11
444.9291352886303
 21
576.0
 31
0.0
  0
LINE
  5
31
330
1F
100
AcDbEntity
  8
0
100
AcDbLine
 10
265.1791352886303
 20
0.0
 30
0.0
 11
449.1791352886303
 21
0.0
 31
0.0
  0
LINE
  5
32
330
1F
100
AcDbEntity
  8
0
100
AcDbLine
 10
449.1791352886303
 20
0.0
 30
0.0
 11
449.1791352886303
 21
-16.0
 31
0.0
  0
LINE
  5
33
330
1F
100
AcDbEntity
  8
0
100
AcDbLine
 10
449.1791352886303
 20
-16.0
 30
0.0
 11
493.1791352886303
 21
-16.0
 31
0.0
  0
LINE
  5
34
330
1F
100
AcDbEntity
  8
0
100
AcDbLine
 10
609.1791352886303
 20
-16.0
 30
0.0
 11
609.1791352886303
 21
0.0
 31
0.0
  0
LINE
  5
35
330
1F
100
AcDbEntity
  8
0
100
AcDbLine
 10
609.1791352886303
 20
0.0
 30
0.0
 11
787.1791352886303
 21
0.0
 31
0.0
  0
LINE
  5
36
330
1F
100
AcDbEntity
  8
0
100
AcDbLine
 10
793.1791352886303
 20
6.0
 30
0.0
 11
793.1791352886303
 21
384.0
 31
0.0
  0
LINE
  5
37
330
1F
100
AcDbEntity
  8
0
100
AcDbLine
 10
793.1791352886303
 20
384.0
 30
0.0
 11
505.1791352886303
 21
384.0
 31
0.0
  0
LINE
  5
38
330
1F
100
AcDbEntity
  8
0
100
AcDbLine
 10
505.1791352886303
 20
576.0
 30
0.0
 11
505.1791352886303
 21
912.0
 31
0.0
  0
LINE
  5
39
330
1F
100
AcDbEntity
  8
0
100
AcDbLine
 10
505.1791352886303
 20
912.0
 30
0.0
 11
223.1791352886303
 21
912.0
 31
0.0
  0
LINE
  5
3A
330
1F
100
AcDbEntity
  8
0
100
AcDbLine
 10
169.1791352886303
 20
912.0
 30
0.0
 11
169.1791352886303
 21
868.0
 31
0.0
  0
LINE
  5
3B
330
1F
100
AcDbEntity
  8
0
100
AcDbLine
 10
169.1791352886303
 20
576.0
 30
0.0
 11
265.1791352886303
 21
576.0
 31
0.0
  0
LINE
  5
3C
330
1F
100
AcDbEntity
  8
0
100
AcDbLine
 10
265.1791352886303
 20
576.0
 30
0.0
 11
265.1791352886303
 21
450.0
 31
0.0
  0
LINE
  5
40
330
1F
100
AcDbEntity
  8
0
100
AcDbLine
 10
265.1791352886303
 20
110.0
 30
0.0
 11
265.1791352886303
 21
0.0
 31
0.0
  0
LINE
  5
42
330
1F
100
AcDbEntity
  8
0
100
AcDbLine
 10
505.1791352886303
 20
576.0
 30
0.0
 11
505.1791352886303
 21
559.3438370930216
 31
0.0
  0
LINE
  5
43
330
1F
100
AcDbEntity
  8
0
100
AcDbLine
 10
500.4291352886303
 20
587.5
 30
0.0
 11
500.4291352886303
 21
907.25
 31
0.0
  0
LINE
  5
44
330
1F
100
AcDbEntity
  8
0
100
AcDbLine
 10
173.9291352886303
 20
907.25
 30
0.0
 11
173.9291352886303
 21
868.0000000000001
 31
0.0
  0
LINE
  5
45
330
1F
100
AcDbEntity
  8
0
100
AcDbLine
 10
173.9291352886303
 20
580.75
 30
0.0
 11
265.1791352886303
 21
580.75
 31
0.0
  0
LINE
  5
46
330
1F
100
AcDbEntity
  8
0
100
AcDbLine
 10
500.4291352886303
 20
907.25
 30
0.0
 11
223.1791352886303
 21
907.25
 31
0.0
  0
LINE
  5
47
330
1F
100
AcDbEntity
  8
0
100
AcDbLine
 10
265.1791352886303
 20
587.5
 30
0.0
 11
453.6791352886303
 21
587.5
 31
0.0
  0
LINE
  5
48
330
1F
100
AcDbEntity
  8
0
100
AcDbLine
 10
276.6791352886303
 20
576.0
 30
0.0
 11
276.6791352886303
 21
450.0
 31
0.0
  0
LINE
  5
49
330
1F
100
AcDbEntity
  8
0
100
AcDbLine
 10
493.6791352886303
 20
576.0
 30
0.0
 11
493.6791352886303
 21
559.3438370930216
 31
0.0
  0
LINE
  5
4A
330
1F
100
AcDbEntity
  8
0
100
AcDbLine
 10
781.6791352886303
 20
372.5
 30
0.0
 11
602.4291352886303
 21
372.5
 31
0.0
  0
LINE
  5
4B
330
1F
100
AcDbEntity
  8
0
100
AcDbLine
 10
781.6791352886303
 20
11.5
 30
0.0
 11
781.6791352886303
 21
372.5
 31
0.0
  0
LINE
  5
4C
330
1F
100
AcDbEntity
  8
0
100
AcDbLine
 10
609.1791352886303
 20
11.5
 30
0.0
 11
781.6791352886303
 21
11.5
 31
0.0
  0
LINE
  5
4D
330
1F
100
AcDbEntity
  8
0
100
AcDbLine
 10
465.4291352886302
 20
-4.5
 30
0.0
 11
493.1791352886302
 21
-4.499999999999999
 31
0.0
  0
LINE
  5
4E
330
1F
100
AcDbEntity
  8
0
100
AcDbLine
 10
276.6791352886303
 20
11.5
 30
0.0
 11
449.1791352886303
 21
11.5
 31
0.0
  0
LINE
  5
4F
330
1F
100
AcDbEntity
  8
0
100
AcDbLine
 10
276.6791352886303
 20
110.0
 30
0.0
 11
276.6791352886303
 21
11.5
 31
0.0
  0
LINE
  5
51
330
1F
100
AcDbEntity
  8
0
100
AcDbLine
 10
597.6791352886303
 20
-4.5
 30
0.0
 11
597.6791352886303
 21
0.0
 31
0.0
  0
LINE
  5
52
330
1F
100
AcDbEntity
  8
0
100
AcDbLine
 10
449.1791352886303
 20
11.5
 30
0.0
 11
460.6791352886303
 21
11.5
 31
0.0
  0
LINE
  5
54
330
1F
100
AcDbEntity
  8
0
100
AcDbLine
 10
609.1791352886303
 20
11.5
 30
0.0
 11
602.4291352886303
 21
11.5
 31
0.0
  0
LINE
  5
55
330
1F
100
AcDbEntity
  8
0
100
AcDbLine
 10
597.6791352886303
 20
0.0
 30
0.0
 11
597.6791352886303
 21
11.5
 31
0.0
  0
LINE
  5
56
330
1F
100
AcDbEntity
  8
0
100
AcDbLine
 10
505.1791352886303
 20
372.5
 30
0.0
 11
493.6791352886303
 21
372.5000000000001
 31
0.0
  0
LINE
  5
5E
330
1F
100
AcDbEntity
  8
0
100
AcDbLine
 10
265.1791352886303
 20
580.75
 30
0.0
 11
265.1791352886303
 21
587.5
 31
0.0
  0
LINE
  5
61
330
1F
100
AcDbEntity
  8
0
100
AcDbLine
 10
493.6791352886303
 20
372.5000000000001
 30
0.0
 11
465.4291352886322
 21
372.5000000000001
 31
0.0
  0
LINE
  5
62
330
1F
100
AcDbEntity
  8
0
100
AcDbLine
 10
493.6791352886303
 20
384.0
 30
0.0
 11
449.6791352886303
 21
384.0
 31
0.0
  0
LINE
  5
63
330
1F
100
AcDbEntity
  8
0
100
AcDbLine
 10
276.6791352886303
 20
372.5000000000001
 30
0.0
 11
276.6791352886303
 21
222.375
 31
0.0
  0
LINE
  5
66
330
1F
100
AcDbEntity
  8
0
100
AcDbLine
 10
449.6791352886303
 20
480.0
 30
0.0
 11
449.6791352886302
 21
523.3438370930216
 31
0.0
  0
LINE
  5
67
330
1F
100
AcDbEntity
  8
0
100
AcDbLine
 10
449.6791352886303
 20
576.0
 30
0.0
 11
449.6791352886303
 21
559.3438370930216
 31
0.0
  0
LINE
  5
68
330
1F
100
AcDbEntity
  8
0
100
AcDbLine
 10
379.0541352886303
 20
384.0
 30
0.0
 11
379.0541352886302
 21
388.0
 31
0.0
  0
LINE
  5
69
330
1F
100
AcDbEntity
  8
0
100
AcDbLine
 10
444.9291352886303
 20
456.0
 30
0.0
 11
379.0541352886303
 21
456.0
 31
0.0
  0
LINE
  5
71
330
1F
100
AcDbEntity
  8
0
100
AcDbLine
 10
379.0541352886303
 20
428.75
 30
0.0
 11
379.0541352886303
 21
456.0
 31
0.0
  0
LINE
  5
72
330
1F
100
AcDbEntity
  8
0
100
AcDbLine
 10
379.0541352886303
 20
497.5
 30
0.0
 11
347.0541352886303
 21
497.5
 31
0.0
  0
LINE
  5
73
330
1F
100
AcDbEntity
  8
0
100
AcDbLine
 10
347.0541352886303
 20
497.5
 30
0.0
 11
347.0541352886303
 21
488.7499999999999
 31
0.0
  0
LINE
  5
74
330
1F
100
AcDbEntity
  8
0
100
AcDbLine
 10
347.0541352886303
 20
424.0
 30
0.0
 11
374.3041352886303
 21
424.0
 31
0.0
  0
LINE
  5
77
330
1F
100
AcDbEntity
  8
0
100
AcDbLine
 10
444.9291352886303
 20
576.0
 30
0.0
 11
444.9291352886303
 21
559.3438370930216
 31
0.0
  0
LINE
  5
78
330
1F
100
AcDbEntity
  8
0
100
AcDbLine
 10
444.9291352886303
 20
460.75
 30
0.0
 11
379.0541352886303
 21
460.75
 31
0.0
  0
LINE
  5
79
330
1F
100
AcDbEntity
  8
0
100
AcDbLine
 10
374.3041352886303
 20
492.75
 30
0.0
 11
351.8041352886303
 21
492.75
 31
0.0
  0
LINE
  5
7A
330
1F
100
AcDbEntity
  8
0
100
AcDbLine
 10
374.3041352886303
 20
428.75
 30
0.0
 11
374.3041352886303
 21
492.75
 31
0.0
  0
LINE
  5
7B
330
1F
100
AcDbEntity
  8
0
100
AcDbLine
 10
374.3041352886303
 20
384.0
 30
0.0
 11
374.3041352886303
 21
388.0
 31
0.0
  0
LINE
  5
7C
330
1F
100
AcDbEntity
  8
0
100
AcDbLine
 10
351.8041352886303
 20
492.75
 30
0.0
 11
351.8041352886303
 21
488.75
 31
0.0
  0
LINE
  5
7D
330
1F
100
AcDbEntity
  8
0
100
AcDbLine
 10
351.8041352886303
 20
428.75
 30
0.0
 11
374.3041352886303
 21
428.75
 31
0.0
  0
LINE
  5
7E
330
1F
100
AcDbEntity
  8
0
100
AcDbLine
 10
379.0541352886303
 20
460.75
 30
0.0
 11
379.0541352886303
 21
497.5
 31
0.0
  0
LINE
  5
7F
330
1F
100
AcDbEntity
  8
0
100
AcDbLine
 10
374.3041352886303
 20
428.75
 30
0.0
 11
374.3041352886303
 21
456.0
 31
0.0
  0
LINE
  5
80
330
1F
100
AcDbEntity
  8
0
100
AcDbLine
 10
444.9291352886303
 20
456.0
 30
0.0
 11
444.9291352886303
 21
384.0
 31
0.0
  0
LINE
  5
81
330
1F
100
AcDbEntity
  8
0
100
AcDbLine
 10
444.9291352886303
 20
384.0
 30
0.0
 11
379.0541352886303
 21
384.0
 31
0.0
  0
LINE
  5
82
330
1F
100
AcDbEntity
  8
0
100
AcDbLine
 10
449.6791352886303
 20
576.0
 30
0.0
 11
453.6791352886303
 21
576.0
 31
0.0
  0
LINE
  5
83
330
1F
100
AcDbEntity
  8
0
100
AcDbLine
 10
374.3041352886303
 20
384.0
 30
0.0
 11
347.0541352886303
 21
384.0
 31
0.0
  0
LINE
  5
85
330
1F
100
AcDbEntity
  8
0
100
AcDbLine
 10
460.6791352886304
 20
11.5
 30
0.0
 11
460.6791352886304
 21
23.98240247232661
 31
0.0
  0
LINE
  5
86
330
1F
100
AcDbEntity
  8
0
100
AcDbLine
 10
597.6791352886303
 20
-4.5
 30
0.0
 11
597.6791352886303
 21
23.98240247232661
 31
0.0
  0
LINE
  5
87
330
1F
100
AcDbEntity
  8
0
100
AcDbLine
 10
345.3862035321199
 20
222.375
 30
0.0
 11
389.2909687544627
 21
222.3749999999998
 31
0.0
  0
LINE
  5
88
330
1F
100
AcDbEntity
  8
0
100
AcDbLine
 10
345.3862035321199
 20
222.375
 30
0.0
 11
276.6791352886303
 21
222.375
 31
0.0
  0
LINE
  5
89
330
1F
100
AcDbEntity
  8
0
100
AcDbLine
 10
602.4291352886303
 20
11.5
 30
0.0
 11
602.4291352886303
 21
23.98240247232661
 31
0.0
  0
LINE
  5
8A
330
1F
100
AcDbEntity
  8
0
100
AcDbLine
 10
465.4291352886303
 20
-4.500000000000025
 30
0.0
 11
465.4291352886303
 21
23.98240247232661
 31
0.0
  0
LINE
  5
8B
330
1F
100
AcDbEntity
  8
0
100
AcDbLine
 10
345.3862035321199
 20
217.625
 30
0.0
 11
389.2909687544626
 21
217.6249999999998
 31
0.0
  0
LINE
  5
8C
330
1F
100
AcDbEntity
  8
0
100
AcDbLine
 10
345.3862035321199
 20
217.625
 30
0.0
 11
276.6791352886303
 21
217.625
 31
0.0
  0
LINE
  5
8D
330
1F
100
AcDbEntity
  8
0
100
AcDbLine
 10
597.6791352886303
 20
372.5
 30
0.0
 11
597.6791352886302
 21
252.0335101886194
 31
0.0
  0
LINE
  5
8E
330
1F
100
AcDbEntity
  8
0
100
AcDbLine
 10
597.6791352886303
 20
192.5
 30
0.0
 11
465.4291352886312
 21
192.5000000000007
 31
0.0
  0
LINE
  5
8F
330
1F
100
AcDbEntity
  8
0
100
AcDbLine
 10
465.4291352886312
 20
187.7500000000007
 30
0.0
 11
465.4291352886312
 21
163.7500000000007
 31
0.0
  0
LINE
  5
90
330
1F
100
AcDbEntity
  8
0
100
AcDbLine
 10
465.4291352886312
 20
159.0000000000007
 30
0.0
 11
471.0541352886314
 21
159.0000000000007
 31
0.0
  0
LINE
  5
91
330
1F
100
AcDbEntity
  8
0
100
AcDbLine
 10
517.4291352886312
 20
159.0000000000007
 30
0.0
 11
517.4291352886314
 21
187.7500000000004
 31
0.0
  0
LINE
  5
92
330
1F
100
AcDbEntity
  8
0
100
AcDbLine
 10
597.6791352886303
 20
187.75
 30
0.0
 11
517.4291352886314
 21
187.7500000000004
 31
0.0
  0
LINE
  5
93
330
1F
100
AcDbEntity
  8
0
100
AcDbLine
 10
512.6791352886312
 20
163.7500000000007
 30
0.0
 11
512.6791352886314
 21
187.7500000000004
 31
0.0
  0
LINE
  5
94
330
1F
100
AcDbEntity
  8
0
100
AcDbLine
 10
465.4291352886312
 20
163.7500000000007
 30
0.0
 11
471.0541352886314
 21
163.7500000000007
 31
0.0
  0
LINE
  5
95
330
1F
100
AcDbEntity
  8
0
100
AcDbLine
 10
460.6791352886322
 20
372.5000000000001
 30
0.0
 11
347.0541352886303
 21
372.5000000000001
 31
0.0
  0
LINE
  5
96
330
1F
100
AcDbEntity
  8
0
100
AcDbLine
 10
597.6791352886303
 20
372.5
 30
0.0
 11
505.1791352886303
 21
372.5
 31
0.0
  0
LINE
  5
97
330
1F
100
AcDbEntity
  8
0
100
AcDbLine
 10
460.6791352886314
 20
222.3749999999994
 30
0.0
 11
460.6791352886319
 21
311.3124418439106
 31
0.0
  0
LINE
  5
98
330
1F
100
AcDbEntity
  8
0
100
AcDbLine
 10
597.6791352886303
 20
192.5
 30
0.0
 11
597.6791352886303
 21
216.0335101886194
 31
0.0
  0
LINE
  5
9A
330
1F
100
AcDbEntity
  8
0
100
AcDbLine
 10
512.6791352886314
 20
187.7500000000004
 30
0.0
 11
465.4291352886312
 21
187.7500000000007
 31
0.0
  0
LINE
  5
9B
330
1F
100
AcDbEntity
  8
0
100
AcDbLine
 10
465.4291352886311
 20
163.7500000000007
 30
0.0
 11
465.4291352886312
 21
187.7500000000007
 31
0.0
  0
LINE
  5
9C
330
1F
100
AcDbEntity
  8
0
100
AcDbLine
 10
465.4291352886313
 20
192.5000000000007
 30
0.0
 11
465.4291352886319
 21
311.3124418439106
 31
0.0
  0
LINE
  5
9D
330
1F
100
AcDbEntity
  8
0
100
AcDbLine
 10
276.6791352886303
 20
217.625
 30
0.0
 11
276.6791352886303
 21
182.0
 31
0.0
  0
DIMENSION
  5
B4
330
1F
100
AcDbEntity
  8
0
100
AcDbDimension
  2
*D2
 10
505.1791352886303
 20
951.1001025221069
 30
0.0
 11
337.1791352886303
 21
951.1001025221069
 31
0.0
 70
    32
 71
     5
 42
336.0
 73
     0
 74
     0
 75
     0
  3
Jennifer
100
AcDbAlignedDimension
 13
169.1791352886303
 23
912.0
 33
0.0
 14
505.1791352886303
 24
912.0
 34
0.0
100
AcDbRotatedDimension
  0
DIMENSION
  5
C3
330
1F
100
AcDbEntity
  8
0
100
AcDbDimension
  2
*D3
 10
205.1791352886303
 20
932.9377789595903
 30
0.0
 11
187.1791352886303
 21
932.9377789595903
 31
0.0
 70
    32
 71
     5
 42
36.0
 73
     0
 74
     0
 75
     0
  3
Jennifer
100
AcDbAlignedDimension
 13
169.1791352886303
 23
912.0
 33
0.0
 14
205.1791352886303
 24
912.0
 34
0.0
100
AcDbRotatedDimension
  0
DIMENSION
  5
D1
330
1F
100
AcDbEntity
  8
0
100
AcDbDimension
  2
*D4
 10
505.1791352886303
 20
932.9377789595903
 30
0.0
 11
355.1791352886303
 21
932.9377789595903
 31
0.0
 70
    32
 71
     5
 42
300.0
 73
     0
 74
     0
 75
     0
  3
Jennifer
100
AcDbAlignedDimension
 13
205.1791352886303
 23
912.0
 33
0.0
 14
505.1791352886303
 24
912.0
 34
0.0
100
AcDbRotatedDimension
1001
ACAD
1000
DSTYLE
1002
{
1070
   279
1070
     1
1002
}
  0
LINE
  5
36C
330
1F
100
AcDbEntity
  8
0
100
AcDbLine
 10
793.1791352886303
 20
304.8978396530863
 30
0.0
 11
793.1791352886303
 21
80.8978396530863
 31
0.0
  0
LINE
  5
55C
330
1F
100
AcDbEntity
  8
0
100
AcDbLine
 10
-442.1101772024867
 20
747.5718698788664
 30
0.0
 11
-429.3601772024867
 21
747.5718698788664
 31
0.0
  0
LINE
  5
55D
330
1F
100
AcDbEntity
  8
0
100
AcDbLine
 10
-429.3601772024867
 20
747.5718698788664
 30
0.0
 11
-429.3601772024867
 21
777.5718698788664
 31
0.0
  0
INSERT
  5
56F
330
1F
100
AcDbEntity
  8
0
100
AcDbBlockReference
  2
Window - Wood Frame 36 x 36 in.
 10
-431.0583779621493
 20
611.4774691173943
 30
0.0
  0
INSERT
  5
59D
330
1F
100
AcDbEntity
  8
0
100
AcDbBlockReference
  2
Toilet - top
 10
-347.7944533798063
 20
652.3976212587495
 30
0.0
  0
INSERT
  5
5AD
330
1F
100
AcDbEntity
  8
0
100
AcDbBlockReference
  2
Sink - Oval top
 10
-365.3237033789219
 20
766.3894702653133
 30
0.0
  0
INSERT
  5
5D3
330
1F
100
AcDbEntity
  8
0
100
AcDbBlockReference
  2
Range-Oven - 30 in top
 10
-486.5676627388384
 20
851.1526395274582
 30
0.0
  0
INSERT
  5
5F9
330
1F
100
AcDbEntity
  8
0
100
AcDbBlockReference
  2
Sink-double - 36 in top
 10
-493.8715177660333
 20
715.2392819604993
 30
0.0
  0
INSERT
  5
608
330
1F
100
AcDbEntity
  8
0
100
AcDbBlockReference
  2
Refrigerator-2 door - 36 in top
 10
-515.7830776822366
 20
779.542376399886
 30
0.0
  0
INSERT
  5
624
330
1F
100
AcDbEntity
  8
0
100
AcDbBlockReference
  2
Sink-single - 30 in top
 10
-489.4892078489456
 20
677.2419997902575
 30
0.0
  0
INSERT
  5
63A
330
1F
100
AcDbEntity
  8
0
100
AcDbBlockReference
  2
Base Cabinet 1 Door - 24 in front
 10
-409.146818045946
 20
843.8454708392733
 30
0.0
  0
INSERT
  5
645
330
1F
100
AcDbEntity
  8
0
100
AcDbBlockReference
  2
Wall Cabinet - 18 x 12 in side
 10
-438.3622329893442
 20
710.8549807475883
 30
0.0
  0
LINE
  5
ACF
330
1F
100
AcDbEntity
  8
0
100
AcDbLine
 10
187.1791352886303
 20
907.2500000000001
 30
0.0
 11
187.1791352886303
 21
871.2500000000001
 31
0.0
  0
LINE
  5
AD2
330
1F
100
AcDbEntity
  8
0
100
AcDbLine
 10
187.1791352886303
 20
907.2500000000001
 30
0.0
 11
188.9291352886303
 21
907.25
 31
0.0
  0
ARC
  5
AD3
330
1F
100
AcDbEntity
  8
0
100
AcDbCircle
 10
187.1791352886304
 20
907.2500000000002
 30
0.0
 40
36.0
100
AcDbArc
 50
270.0
 51
0.0
  0
ARC
  5
AD4
330
1F
100
AcDbEntity
  8
0
100
AcDbCircle
 10
493.1791352886303
 20
-4.499999999999998
 30
0.0
 40
36.0
100
AcDbArc
 50
0.0
 51
90.0
  0
LINE
  5
AD7
330
1F
100
AcDbEntity
  8
0
100
AcDbLine
 10
493.1791352886303
 20
-4.499999999999998
 30
0.0
 11
493.1791352886303
 21
31.5
 31
0.0
  0
LINE
  5
AE2
330
1F
100
AcDbEntity
  8
0
100
AcDbLine
 10
493.1791352886303
 20
-16.0
 30
0.0
 11
491.4291352886303
 21
-16.0
 31
0.0
  0
LINE
  5
AE9
330
1F
100
AcDbEntity
  8
0
100
AcDbLine
 10
565.1791352886303
 20
-16.0
 30
0.0
 11
566.9291352886303
 21
-16.0
 31
0.0
  0
LINE
  5
AEF
330
1F
100
AcDbEntity
  8
0
100
AcDbLine
 10
379.0541352886303
 20
420.0
 30
0.0
 11
411.0541352886303
 21
419.9999999999999
 31
0.0
  0
ARC
  5
AF3
330
1F
100
AcDbEntity
  8
0
100
AcDbCircle
 10
379.0541352886303
 20
419.9999999999999
 30
0.0
 40
32.0
100
AcDbArc
 50
270.0
 51
0.0
  0
LINE
  5
AF6
330
1F
100
AcDbEntity
  8
0
100
AcDbLine
 10
347.0541352886303
 20
488.7499999999999
 30
0.0
 11
351.8041352886303
 21
488.75
 31
0.0
  0
LINE
  5
AF7
330
1F
100
AcDbEntity
  8
0
100
AcDbLine
 10
347.0541352886303
 20
432.75
 30
0.0
 11
351.8041352886303
 21
432.75
 31
0.0
  0
LINE
  5
AF8
330
1F
100
AcDbEntity
  8
0
100
AcDbLine
 10
351.8041352886303
 20
432.75
 30
0.0
 11
351.8041352886303
 21
428.75
 31
0.0
  0
LINE
  5
AF9
330
1F
100
AcDbEntity
  8
0
100
AcDbLine
 10
347.0541352886303
 20
432.75
 30
0.0
 11
347.0541352886303
 21
424.0
 31
0.0
  0
LINE
  5
AFC
330
1F
100
AcDbEntity
  8
0
100
AcDbLine
 10
374.3041352886303
 20
420.0
 30
0.0
 11
379.0541352886303
 21
420.0
 31
0.0
  0
LINE
  5
AFD
330
1F
100
AcDbEntity
  8
0
100
AcDbLine
 10
374.3041352886303
 20
388.0
 30
0.0
 11
379.0541352886303
 21
388.0
 31
0.0
  0
LINE
  5
AFE
330
1F
100
AcDbEntity
  8
0
100
AcDbLine
 10
379.0541352886302
 20
420.0
 30
0.0
 11
379.0541352886303
 21
456.0
 31
0.0
  0
LINE
  5
AFF
330
1F
100
AcDbEntity
  8
0
100
AcDbLine
 10
374.3041352886303
 20
420.0
 30
0.0
 11
374.3041352886303
 21
424.0
 31
0.0
  0
LINE
  5
B02
330
1F
100
AcDbEntity
  8
0
100
AcDbLine
 10
505.1791352886303
 20
559.3438370930216
 30
0.0
 11
493.6791352886303
 21
559.3438370930216
 31
0.0
  0
LINE
  5
B03
330
1F
100
AcDbEntity
  8
0
100
AcDbLine
 10
505.1791352886303
 20
523.3438370930216
 30
0.0
 11
493.6791352886303
 21
523.3438370930216
 31
0.0
  0
LINE
  5
B04
330
1F
100
AcDbEntity
  8
0
100
AcDbLine
 10
505.1791352886303
 20
523.3438370930216
 30
0.0
 11
505.1791352886303
 21
384.0
 31
0.0
  0
LINE
  5
B05
330
1F
100
AcDbEntity
  8
0
100
AcDbLine
 10
493.6791352886303
 20
523.3438370930216
 30
0.0
 11
493.6791352886303
 21
384.0
 31
0.0
  0
LINE
  5
B06
330
1F
100
AcDbEntity
  8
0
100
AcDbLine
 10
444.9291352886303
 20
523.3438370930216
 30
0.0
 11
444.9291352886303
 21
460.75
 31
0.0
  0
LINE
  5
B07
330
1F
100
AcDbEntity
  8
0
100
AcDbLine
 10
449.6791352886302
 20
523.3438370930216
 30
0.0
 11
449.6791352886303
 21
384.0
 31
0.0
  0
LINE
  5
B08
330
1F
100
AcDbEntity
  8
0
100
AcDbLine
 10
449.6791352886303
 20
559.3438370930216
 30
0.0
 11
449.6791352886303
 21
576.0
 31
0.0
  0
LINE
  5
B09
330
1F
100
AcDbEntity
  8
0
100
AcDbLine
 10
449.6791352886303
 20
523.3438370930216
 30
0.0
 11
444.9291352886303
 21
523.3438370930216
 31
0.0
  0
LINE
  5
B0A
330
1F
100
AcDbEntity
  8
0
100
AcDbLine
 10
449.6791352886303
 20
559.3438370930216
 30
0.0
 11
444.9291352886303
 21
559.3438370930216
 31
0.0
  0
LINE
  5
B0E
330
1F
100
AcDbEntity
  8
0
100
AcDbLine
 10
453.6791352886303
 20
575.9999999999999
 30
0.0
 11
453.6791352886303
 21
587.5
 31
0.0
  0
LINE
  5
B10
330
1F
100
AcDbEntity
  8
0
100
AcDbLine
 10
489.6791352886303
 20
575.9999999999999
 30
0.0
 11
489.6791352886302
 21
587.5
 31
0.0
  0
LINE
  5
B11
330
1F
100
AcDbEntity
  8
0
100
AcDbLine
 10
489.6791352886303
 20
576.0
 30
0.0
 11
493.6791352886303
 21
576.0
 31
0.0
  0
LINE
  5
B12
330
1F
100
AcDbEntity
  8
0
100
AcDbLine
 10
489.6791352886302
 20
587.5
 30
0.0
 11
500.4291352886303
 21
587.5
 31
0.0
  0
LINE
  5
B14
330
1F
100
AcDbEntity
  8
0
100
AcDbLine
 10
265.1791352886303
 20
449.9999999999999
 30
0.0
 11
276.6791352886303
 21
450.0
 31
0.0
  0
LINE
  5
B15
330
1F
100
AcDbEntity
  8
0
100
AcDbLine
 10
265.1791352886303
 20
414.0
 30
0.0
 11
276.6791352886303
 21
413.9999999999999
 31
0.0
  0
LINE
  5
B16
330
1F
100
AcDbEntity
  8
0
100
AcDbLine
 10
276.6791352886303
 20
413.9999999999999
 30
0.0
 11
276.6791352886303
 21
384.0
 31
0.0
  0
LINE
  5
B17
330
1F
100
AcDbEntity
  8
0
100
AcDbLine
 10
265.1791352886303
 20
413.9999999999999
 30
0.0
 11
265.1791352886303
 21
182.0
 31
0.0
  0
LINE
  5
B1A
330
1F
100
AcDbEntity
  8
0
100
AcDbLine
 10
187.1791352886303
 20
907.2500000000001
 30
0.0
 11
187.1791352886303
 21
912.0
 31
0.0
  0
LINE
  5
B1B
330
1F
100
AcDbEntity
  8
0
100
AcDbLine
 10
203.8144673484518
 20
912.0
 30
0.0
 11
205.8353783483521
 21
907.25
 31
0.0
  0
LINE
  5
B1D
330
1F
100
AcDbEntity
  8
0
100
AcDbLine
 10
223.1791352886302
 20
907.25
 30
0.0
 11
223.1791352886303
 21
912.0
 31
0.0
  0
LINE
  5
B1E
330
1F
100
AcDbEntity
  8
0
100
AcDbLine
 10
187.1791352886303
 20
907.25
 30
0.0
 11
173.9291352886303
 21
907.25
 31
0.0
  0
LINE
  5
B1F
330
1F
100
AcDbEntity
  8
0
100
AcDbLine
 10
187.1791352886303
 20
912.0
 30
0.0
 11
169.1791352886303
 21
912.0
 31
0.0
  0
LINE
  5
B20
330
1F
100
AcDbEntity
  8
0
100
AcDbLine
 10
205.1791352886302
 20
912.0
 30
0.0
 11
203.8144673484518
 21
912.0
 31
0.0
  0
LINE
  5
B21
330
1F
100
AcDbEntity
  8
0
100
AcDbLine
 10
205.8353783483521
 20
907.25
 30
0.0
 11
205.1791352886302
 21
907.25
 31
0.0
  0
LINE
  5
B22
330
1F
100
AcDbEntity
  8
0
100
AcDbLine
 10
347.0541352886303
 20
384.0
 30
0.0
 11
347.0541352886303
 21
372.5000000000001
 31
0.0
  0
LINE
  5
B23
330
1F
100
AcDbEntity
  8
0
100
AcDbLine
 10
311.0541352886302
 20
372.5000000000001
 30
0.0
 11
311.0541352886302
 21
383.9999999999999
 31
0.0
  0
LINE
  5
B24
330
1F
100
AcDbEntity
  8
0
100
AcDbLine
 10
311.0541352886302
 20
383.9999999999999
 30
0.0
 11
276.6791352886303
 21
384.0
 31
0.0
  0
LINE
  5
B25
330
1F
100
AcDbEntity
  8
0
100
AcDbLine
 10
311.0541352886303
 20
372.5000000000001
 30
0.0
 11
276.6791352886303
 21
372.5000000000001
 31
0.0
  0
LINE
  5
B26
330
1F
100
AcDbEntity
  8
0
100
AcDbLine
 10
460.6791352886321
 20
347.3124418439106
 30
0.0
 11
465.4291352886322
 21
347.3124418439106
 31
0.0
  0
LINE
  5
B27
330
1F
100
AcDbEntity
  8
0
100
AcDbLine
 10
460.6791352886319
 20
311.3124418439106
 30
0.0
 11
465.4291352886319
 21
311.3124418439106
 31
0.0
  0
LINE
  5
B28
330
1F
100
AcDbEntity
  8
0
100
AcDbLine
 10
465.4291352886322
 20
347.3124418439106
 30
0.0
 11
465.4291352886322
 21
372.5000000000002
 31
0.0
  0
LINE
  5
B29
330
1F
100
AcDbEntity
  8
0
100
AcDbLine
 10
460.679135288632
 20
347.3124418439106
 30
0.0
 11
460.6791352886322
 21
372.5000000000002
 31
0.0
  0
LINE
  5
B2C
330
1F
100
AcDbEntity
  8
0
100
AcDbLine
 10
437.2909687544626
 20
222.3749999999995
 30
0.0
 11
460.6791352886314
 21
222.3749999999994
 31
0.0
  0
LINE
  5
B2D
330
1F
100
AcDbEntity
  8
0
100
AcDbLine
 10
437.2909687544625
 20
217.6249999999995
 30
0.0
 11
460.6791352886314
 21
217.6249999999994
 31
0.0
  0
LINE
  5
B2F
330
1F
100
AcDbEntity
  8
0
100
AcDbLine
 10
602.4291352886303
 20
252.0335101886194
 30
0.0
 11
597.6791352886303
 21
252.0335101886194
 31
0.0
  0
LINE
  5
B30
330
1F
100
AcDbEntity
  8
0
100
AcDbLine
 10
597.6791352886303
 20
216.0335101886194
 30
0.0
 11
602.4291352886303
 21
216.0335101886194
 31
0.0
  0
LINE
  5
B31
330
1F
100
AcDbEntity
  8
0
100
AcDbLine
 10
602.4291352886303
 20
252.0335101886194
 30
0.0
 11
602.4291352886303
 21
372.5
 31
0.0
  0
LINE
  5
B32
330
1F
100
AcDbEntity
  8
0
100
AcDbLine
 10
597.6791352886303
 20
216.0335101886194
 30
0.0
 11
597.6791352886303
 21
192.5
 31
0.0
  0
LINE
  5
B33
330
1F
100
AcDbEntity
  8
0
100
AcDbLine
 10
597.6791352886303
 20
252.0335101886194
 30
0.0
 11
597.6791352886303
 21
372.5
 31
0.0
  0
LINE
  5
B35
330
1F
100
AcDbEntity
  8
0
100
AcDbLine
 10
507.0541352886312
 20
159.0000000000007
 30
0.0
 11
507.0541352886312
 21
163.7500000000006
 31
0.0
  0
LINE
  5
B36
330
1F
100
AcDbEntity
  8
0
100
AcDbLine
 10
471.0541352886314
 20
159.0000000000007
 30
0.0
 11
471.0541352886314
 21
163.7500000000007
 31
0.0
  0
LINE
  5
B39
330
1F
100
AcDbEntity
  8
0
100
AcDbLine
 10
507.0541352886313
 20
159.0000000000007
 30
0.0
 11
512.6791352886303
 21
159.0000000000006
 31
0.0
  0
LINE
  5
B3A
330
1F
100
AcDbEntity
  8
0
100
AcDbLine
 10
507.0541352886312
 20
163.7500000000006
 30
0.0
 11
512.6791352886313
 21
163.7500000000006
 31
0.0
  0
LINE
  5
B4B
330
1F
100
AcDbEntity
  8
0
100
AcDbLine
 10
493.1791352886302
 20
-4.499999999999999
 30
0.0
 11
493.1791352886303
 21
-16.0
 31
0.0
  0
LINE
  5
B4C
330
1F
100
AcDbEntity
  8
0
100
AcDbLine
 10
565.1791352886303
 20
-4.499999999999999
 30
0.0
 11
565.1791352886303
 21
-16.0
 31
0.0
  0
LINE
  5
B4D
330
1F
100
AcDbEntity
  8
0
100
AcDbLine
 10
565.1791352886304
 20
-4.500000000000001
 30
0.0
 11
597.6791352886303
 21
-4.5
 31
0.0
  0
LINE
  5
B4E
330
1F
100
AcDbEntity
  8
0
100
AcDbLine
 10
565.1791352886303
 20
-16.0
 30
0.0
 11
609.1791352886303
 21
-16.0
 31
0.0
  0
LINE
  5
B98
330
1F
100
AcDbEntity
  8
0
100
AcDbLine
 10
173.9291352886303
 20
868.0
 30
0.0
 11
169.1791352886303
 21
868.0
 31
0.0
  0
LINE
  5
B99
330
1F
100
AcDbEntity
  8
0
100
AcDbLine
 10
173.9291352886302
 20
772.0
 30
0.0
 11
169.1791352886303
 21
772.0
 31
0.0
  0
LINE
  5
B9A
330
1F
100
AcDbEntity
  8
0
100
AcDbLine
 10
173.9291352886303
 20
716.0
 30
0.0
 11
169.1791352886303
 21
716.0
 31
0.0
  0
LINE
  5
B9B
330
1F
100
AcDbEntity
  8
0
100
AcDbLine
 10
173.9291352886303
 20
620.0
 30
0.0
 11
169.1791352886303
 21
620.0
 31
0.0
  0
LINE
  5
B9C
330
1F
100
AcDbEntity
  8
0
100
AcDbLine
 10
173.9291352886303
 20
771.9999999999999
 30
0.0
 11
173.9291352886303
 21
716.0
 31
0.0
  0
LINE
  5
B9D
330
1F
100
AcDbEntity
  8
0
100
AcDbLine
 10
169.1791352886303
 20
772.0
 30
0.0
 11
169.1791352886303
 21
716.0
 31
0.0
  0
LINE
  5
B9E
330
1F
100
AcDbEntity
  8
0
100
AcDbLine
 10
173.9291352886303
 20
620.0
 30
0.0
 11
173.9291352886303
 21
580.75
 31
0.0
  0
LINE
  5
B9F
330
1F
100
AcDbEntity
  8
0
100
AcDbLine
 10
169.1791352886303
 20
620.0
 30
0.0
 11
169.1791352886303
 21
576.0
 31
0.0
  0
LINE
  5
BA2
330
1F
100
AcDbEntity
  8
0
100
AcDbLine
 10
602.4291352886303
 20
23.98240247232661
 30
0.0
 11
597.6791352886303
 21
23.98240247232661
 31
0.0
  0
LINE
  5
BA4
330
1F
100
AcDbEntity
  8
0
100
AcDbLine
 10
460.6791352886307
 20
71.98240247232661
 30
0.0
 11
465.4291352886306
 21
71.98240247232661
 31
0.0
  0
LINE
  5
BA5
330
1F
100
AcDbEntity
  8
0
100
AcDbLine
 10
597.6791352886303
 20
71.98240247232661
 30
0.0
 11
597.6791352886303
 21
187.75
 31
0.0
  0
LINE
  5
BA6
330
1F
100
AcDbEntity
  8
0
100
AcDbLine
 10
602.4291352886303
 20
71.98240247232661
 30
0.0
 11
602.4291352886303
 21
216.0335101886194
 31
0.0
  0
LINE
  5
BA7
330
1F
100
AcDbEntity
  8
0
100
AcDbLine
 10
465.4291352886306
 20
71.98240247232661
 30
0.0
 11
465.4291352886311
 21
159.0000000000007
 31
0.0
  0
LINE
  5
BA8
330
1F
100
AcDbEntity
  8
0
100
AcDbLine
 10
460.6791352886307
 20
71.98240247232661
 30
0.0
 11
460.6791352886314
 21
217.6249999999994
 31
0.0
  0
LINE
  5
BA9
330
1F
100
AcDbEntity
  8
0
100
AcDbLine
 10
597.6791352886303
 20
71.98240247232661
 30
0.0
 11
602.4291352886303
 21
71.98240247232661
 31
0.0
  0
LINE
  5
BAB
330
1F
100
AcDbEntity
  8
0
100
AcDbLine
 10
460.6791352886304
 20
23.98240247232661
 30
0.0
 11
465.4291352886304
 21
23.9824024723266
 31
0.0
  0
LINE
  5
BAE
330
1F
100
AcDbEntity
  8
0
100
AcDbLine
 10
389.2909687544626
 20
217.6249999999998
 30
0.0
 11
389.2909687544626
 21
222.3749999999998
 31
0.0
  0
LINE
  5
BAF
330
1F
100
AcDbEntity
  8
0
100
AcDbLine
 10
437.2909687544626
 20
217.6249999999996
 30
0.0
 11
437.2909687544627
 21
222.3749999999995
 31
0.0
  0
LINE
  5
BB5
330
1F
100
AcDbEntity
  8
0
100
AcDbLine
 10
494.9291352886303
 20
13.5
 30
0.0
 11
494.9291352886303
 21
-4.499999999999998
 31
0.0
  0
LINE
  5
BB7
330
1F
100
AcDbEntity
  8
0
100
AcDbLine
 10
494.9291352886303
 20
13.5
 30
0.0
 11
494.9291352886303
 21
31.45744012023103
 31
0.0
  0
LINE
  5
BB8
330
1F
100
AcDbEntity
  8
0
100
AcDbLine
 10
493.1791352886303
 20
-4.499999999999998
 30
0.0
 11
494.9291352886303
 21
-4.499999999999998
 31
0.0
  0
ARC
  5
BBB
330
1F
100
AcDbEntity
  8
0
100
AcDbCircle
 10
565.1791352886303
 20
-4.499999999999998
 30
0.0
 40
36.0
100
AcDbArc
 50
90.0
 51
180.0
  0
LINE
  5
BBC
330
1F
100
AcDbEntity
  8
0
100
AcDbLine
 10
563.4291352886303
 20
13.5
 30
0.0
 11
563.4291352886303
 21
-4.499999999999998
 31
0.0
  0
LINE
  5
BBD
330
1F
100
AcDbEntity
  8
0
100
AcDbLine
 10
565.1791352886303
 20
-4.499999999999998
 30
0.0
 11
565.1791352886303
 21
31.5
 31
0.0
  0
LINE
  5
BBE
330
1F
100
AcDbEntity
  8
0
100
AcDbLine
 10
565.1791352886303
 20
-4.499999999999998
 30
0.0
 11
563.4291352886303
 21
-4.499999999999998
 31
0.0
  0
LINE
  5
BBF
330
1F
100
AcDbEntity
  8
0
100
AcDbLine
 10
563.4291352886303
 20
13.5
 30
0.0
 11
563.4291352886303
 21
31.45744012023103
 31
0.0
  0
LINE
  5
BC3
330
1F
100
AcDbEntity
  8
0
100
AcDbLine
 10
379.0541352886303
 20
418.25
 30
0.0
 11
411.0062478948415
 21
418.2499999999999
 31
0.0
  0
LINE
  5
BC4
330
1F
100
AcDbEntity
  8
0
100
AcDbLine
 10
379.0541352886303
 20
418.25
 30
0.0
 11
379.0541352886303
 21
420.0
 31
0.0
  0
LINE
  5
BC9
330
1F
100
AcDbEntity
  8
0
100
AcDbLine
 10
188.9291352886303
 20
907.2500000000001
 30
0.0
 11
188.9291352886303
 21
871.2925598797691
 31
0.0
  0
ARC
  5
BCA
330
1F
100
AcDbEntity
  8
0
100
AcDbCircle
 10
276.6791352886303
 20
450.0
 30
0.0
 40
36.0
100
AcDbArc
 50
270.0
 51
0.000000000000007
  0
LINE
  5
BCB
330
1F
100
AcDbEntity
  8
0
100
AcDbLine
 10
187.1791352886303
 20
907.2500000000001
 30
0.0
 11
188.9291352886303
 21
907.25
 31
0.0
  0
LINE
  5
BCC
330
1F
100
AcDbEntity
  8
0
100
AcDbLine
 10
276.6791352886303
 20
450.0
 30
0.0
 11
312.6791352886303
 21
450.0
 31
0.0
  0
LINE
  5
BCD
330
1F
100
AcDbEntity
  8
0
100
AcDbLine
 10
276.6791352886303
 20
448.25
 30
0.0
 11
312.6365754088613
 21
448.25
 31
0.0
  0
LINE
  5
BCE
330
1F
100
AcDbEntity
  8
0
100
AcDbLine
 10
493.6791352886303
 20
557.5938370930216
 30
0.0
 11
457.7216951683993
 21
557.5938370930216
 31
0.0
  0
LINE
  5
BCF
330
1F
100
AcDbEntity
  8
0
100
AcDbLine
 10
493.6791352886303
 20
559.3438370930216
 30
0.0
 11
457.6791352886303
 21
559.3438370930216
 31
0.0
  0
ARC
  5
BD0
330
1F
100
AcDbEntity
  8
0
100
AcDbCircle
 10
493.6791352886303
 20
559.3438370930216
 30
0.0
 40
36.0
100
AcDbArc
 50
180.0
 51
270.0
  0
LINE
  5
BD3
330
1F
100
AcDbEntity
  8
0
100
AcDbLine
 10
444.9291352886303
 20
557.5938370930216
 30
0.0
 11
408.9716951683993
 21
557.5938370930216
 31
0.0
  0
LINE
  5
BD4
330
1F
100
AcDbEntity
  8
0
100
AcDbLine
 10
444.9291352886303
 20
559.3438370930216
 30
0.0
 11
408.9291352886303
 21
559.3438370930216
 31
0.0
  0
ARC
  5
BD5
330
1F
100
AcDbEntity
  8
0
100
AcDbCircle
 10
444.9291352886303
 20
559.3438370930216
 30
0.0
 40
36.0
100
AcDbArc
 50
180.0
 51
270.0
  0
LINE
  5
BD8
330
1F
100
AcDbEntity
  8
0
100
AcDbLine
 10
444.9291352886303
 20
557.5938370930216
 30
0.0
 11
444.9291352886303
 21
559.3438370930216
 31
0.0
  0
LINE
  5
BD9
330
1F
100
AcDbEntity
  8
0
100
AcDbLine
 10
493.6791352886303
 20
557.5938370930216
 30
0.0
 11
493.6791352886303
 21
559.3438370930216
 31
0.0
  0
ARC
  5
BDC
330
1F
100
AcDbEntity
  8
0
100
AcDbCircle
 10
489.6791352886303
 20
587.5
 30
0.0
 40
36.0
100
AcDbArc
 50
89.99999999999999
 51
180.0
  0
LINE
  5
BDD
330
1F
100
AcDbEntity
  8
0
100
AcDbLine
 10
487.9291352886302
 20
587.5
 30
0.0
 11
487.9291352886303
 21
623.457440120231
 31
0.0
  0
LINE
  5
BDE
330
1F
100
AcDbEntity
  8
0
100
AcDbLine
 10
489.6791352886302
 20
587.5
 30
0.0
 11
489.6791352886303
 21
623.5
 31
0.0
  0
LINE
  5
BDF
330
1F
100
AcDbEntity
  8
0
100
AcDbLine
 10
487.9291352886302
 20
587.5
 30
0.0
 11
489.6791352886303
 21
587.5
 31
0.0
  0
ARC
  5
BE4
330
1F
100
AcDbEntity
  8
0
100
AcDbCircle
 10
347.0541352886303
 20
384.0
 30
0.0
 40
36.0
100
AcDbArc
 50
89.99999999999999
 51
180.0
  0
LINE
  5
BE5
330
1F
100
AcDbEntity
  8
0
100
AcDbLine
 10
345.3041352886303
 20
384.0
 30
0.0
 11
345.3041352886303
 21
419.957440120231
 31
0.0
  0
LINE
  5
BE6
330
1F
100
AcDbEntity
  8
0
100
AcDbLine
 10
347.0541352886303
 20
384.0
 30
0.0
 11
347.0541352886303
 21
420.0
 31
0.0
  0
LINE
  5
BE7
330
1F
100
AcDbEntity
  8
0
100
AcDbLine
 10
276.6791352886303
 20
450.0
 30
0.0
 11
276.6791352886303
 21
448.25
 31
0.0
  0
LINE
  5
BE8
330
1F
100
AcDbEntity
  8
0
100
AcDbLine
 10
345.3041352886303
 20
384.0
 30
0.0
 11
347.0541352886303
 21
384.0
 31
0.0
  0
ARC
  5
BE9
330
1F
100
AcDbEntity
  8
0
100
AcDbCircle
 10
471.0541352886314
 20
159.0000000000007
 30
0.0
 40
36.0
100
AcDbArc
 50
270.0
 51
0.0
  0
LINE
  5
BEA
330
1F
100
AcDbEntity
  8
0
100
AcDbLine
 10
471.0541352886314
 20
159.0000000000007
 30
0.0
 11
471.0541352886314
 21
123.0000000000007
 31
0.0
  0
LINE
  5
BEB
330
1F
100
AcDbEntity
  8
0
100
AcDbLine
 10
472.8041352886314
 20
159.0000000000007
 30
0.0
 11
472.8041352886314
 21
123.0425598797697
 31
0.0
  0
LINE
  5
BED
330
1F
100
AcDbEntity
  8
0
100
AcDbLine
 10
471.0541352886314
 20
159.0000000000007
 30
0.0
 11
472.8041352886314
 21
159.0000000000007
 31
0.0
  0
LINE
  5
BF2
330
1F
100
AcDbEntity
  8
0
100
AcDbLine
 10
462.1791352886306
 20
23.98240247232661
 30
0.0
 11
462.1791352886306
 21
71.98240247232661
 31
0.0
  0
LINE
  5
BF3
330
1F
100
AcDbEntity
  8
0
100
AcDbLine
 10
462.1791352886306
 20
71.98240247232661
 30
0.0
 11
462.1791352886306
 21
127.9824024723266
 31
0.0
  0
LINE
  5
BF5
330
1F
100
AcDbEntity
  8
0
100
AcDbLine
 10
462.1791352886306
 20
127.9824024723266
 30
0.0
 11
463.9291352886306
 21
127.9824024723266
 31
0.0
  0
LINE
  5
BF6
330
1F
100
AcDbEntity
  8
0
100
AcDbLine
 10
463.9291352886306
 20
127.9824024723266
 30
0.0
 11
463.9291352886307
 21
23.98240247232661
 31
0.0
  0
LINE
  5
BF7
330
1F
100
AcDbEntity
  8
0
100
AcDbLine
 10
462.1791352886306
 20
23.98240247232661
 30
0.0
 11
463.9291352886306
 21
23.98240247232661
 31
0.0
  0
LINE
  5
BF9
330
1F
100
AcDbEntity
  8
0
100
AcDbLine
 10
462.1791352886306
 20
71.98240247232661
 30
0.0
 11
463.9291352886306
 21
71.98240247232661
 31
0.0
  0
LINE
  5
BFB
330
1F
100
AcDbEntity
  8
0
100
AcDbLine
 10
599.1791352886303
 20
23.98240247232662
 30
0.0
 11
599.1791352886303
 21
71.98240247232661
 31
0.0
  0
LINE
  5
BFC
330
1F
100
AcDbEntity
  8
0
100
AcDbLine
 10
600.9291352886303
 20
127.9824024723266
 30
0.0
 11
600.9291352886304
 21
23.98240247232662
 31
0.0
  0
LINE
  5
BFD
330
1F
100
AcDbEntity
  8
0
100
AcDbLine
 10
599.1791352886303
 20
23.98240247232662
 30
0.0
 11
600.9291352886303
 21
23.98240247232662
 31
0.0
  0
LINE
  5
BFE
330
1F
100
AcDbEntity
  8
0
100
AcDbLine
 10
599.1791352886303
 20
71.98240247232661
 30
0.0
 11
599.1791352886303
 21
127.9824024723266
 31
0.0
  0
LINE
  5
BFF
330
1F
100
AcDbEntity
  8
0
100
AcDbLine
 10
599.1791352886303
 20
71.98240247232661
 30
0.0
 11
600.9291352886303
 21
71.98240247232661
 31
0.0
  0
LINE
  5
C00
330
1F
100
AcDbEntity
  8
0
100
AcDbLine
 10
599.1791352886303
 20
127.9824024723266
 30
0.0
 11
600.9291352886303
 21
127.9824024723266
 31
0.0
  0
LINE
  5
C03
330
1F
100
AcDbEntity
  8
0
100
AcDbLine
 10
276.6791352886303
 20
29.0
 30
0.0
 11
276.6791352886303
 21
67.0
 31
0.0
  0
LINE
  5
C04
330
1F
100
AcDbEntity
  8
0
100
AcDbLine
 10
276.6791352886303
 20
67.0
 30
0.0
 11
271.9291352886303
 21
67.0
 31
0.0
  0
LINE
  5
C05
330
1F
100
AcDbEntity
  8
0
100
AcDbLine
 10
271.9291352886303
 20
67.0
 30
0.0
 11
269.9291352886303
 21
67.0
 31
0.0
  0
LINE
  5
C06
330
1F
100
AcDbEntity
  8
0
100
AcDbLine
 10
269.9291352886303
 20
67.0
 30
0.0
 11
269.9291352886303
 21
29.0
 31
0.0
  0
LINE
  5
C07
330
1F
100
AcDbEntity
  8
0
100
AcDbLine
 10
269.9291352886303
 20
29.0
 30
0.0
 11
276.6791352886303
 21
29.0
 31
0.0
  0
LINE
  5
C08
330
1F
100
AcDbEntity
  8
0
100
AcDbLine
 10
274.6791352886303
 20
29.0
 30
0.0
 11
274.6791352886303
 21
67.0
 31
0.0
  0
LINE
  5
C09
330
1F
100
AcDbEntity
  8
0
100
AcDbLine
 10
272.6791352886303
 20
29.0
 30
0.0
 11
272.6791352886303
 21
67.0
 31
0.0
  0
LINE
  5
C0B
330
1F
100
AcDbEntity
  8
0
100
AcDbLine
 10
661.1791352886303
 20
0.0
 30
0.0
 11
741.1791352886303
 21
0.0
 31
0.0
  0
LINE
  5
C0C
330
1F
100
AcDbEntity
  8
0
100
AcDbLine
 10
793.1791352886303
 20
332.0
 30
0.0
 11
788.4291352886303
 21
332.0
 31
0.0
  0
LINE
  5
C0D
330
1F
100
AcDbEntity
  8
0
100
AcDbLine
 10
788.4291352886303
 20
332.0
 30
0.0
 11
786.4291352886303
 21
332.0
 31
0.0
  0
LINE
  5
C0E
330
1F
100
AcDbEntity
  8
0
100
AcDbLine
 10
786.4291352886303
 20
332.0
 30
0.0
 11
786.4291352886303
 21
252.0
 31
0.0
  0
LINE
  5
C10
330
1F
100
AcDbEntity
  8
0
100
AcDbLine
 10
791.1791352886303
 20
252.0
 30
0.0
 11
791.1791352886303
 21
332.0
 31
0.0
  0
LINE
  5
C11
330
1F
100
AcDbEntity
  8
0
100
AcDbLine
 10
789.1791352886303
 20
252.0
 30
0.0
 11
789.1791352886303
 21
332.0
 31
0.0
  0
LINE
  5
C14
330
1F
100
AcDbEntity
  8
0
100
AcDbLine
 10
786.4291352886303
 20
252.0
 30
0.0
 11
781.6791352886303
 21
252.0
 31
0.0
  0
LINE
  5
C15
330
1F
100
AcDbEntity
  8
0
100
AcDbLine
 10
786.4291352886303
 20
332.0
 30
0.0
 11
781.6791352886303
 21
332.0
 31
0.0
  0
LINE
  5
C1F
330
1F
100
AcDbEntity
  8
0
100
AcDbLine
 10
321.1791352886303
 20
2.0
 30
0.0
 11
401.1791352886303
 21
2.0
 31
0.0
  0
LINE
  5
C20
330
1F
100
AcDbEntity
  8
0
100
AcDbLine
 10
321.1791352886303
 20
4.0
 30
0.0
 11
401.1791352886303
 21
4.0
 31
0.0
  0
LINE
  5
C21
330
1F
100
AcDbEntity
  8
0
100
AcDbLine
 10
401.1791352886303
 20
6.75
 30
0.0
 11
321.1791352886303
 21
6.75
 31
0.0
  0
LINE
  5
C22
330
1F
100
AcDbEntity
  8
0
100
AcDbLine
 10
321.1791352886303
 20
6.75
 30
0.0
 11
321.1791352886303
 21
0.0
 31
0.0
  0
LINE
  5
C23
330
1F
100
AcDbEntity
  8
0
100
AcDbLine
 10
321.1791352886303
 20
6.75
 30
0.0
 11
321.1791352886303
 21
11.5
 31
0.0
  0
LINE
  5
C24
330
1F
100
AcDbEntity
  8
0
100
AcDbLine
 10
401.1791352886303
 20
0.0
 30
0.0
 11
401.1791352886303
 21
4.75
 31
0.0
  0
LINE
  5
C25
330
1F
100
AcDbEntity
  8
0
100
AcDbLine
 10
401.1791352886303
 20
4.75
 30
0.0
 11
401.1791352886303
 21
6.75
 31
0.0
  0
LINE
  5
C26
330
1F
100
AcDbEntity
  8
0
100
AcDbLine
 10
401.1791352886303
 20
6.75
 30
0.0
 11
401.1791352886303
 21
11.5
 31
0.0
  0
LINE
  5
C28
330
1F
100
AcDbEntity
  8
0
100
AcDbLine
 10
737.1791352886303
 20
384.0
 30
0.0
 11
657.1791352886303
 21
384.0
 31
0.0
  0
LINE
  5
C29
330
1F
100
AcDbEntity
  8
0
100
AcDbLine
 10
737.1791352886303
 20
380.0
 30
0.0
 11
657.1791352886303
 21
380.0
 31
0.0
  0
LINE
  5
C2A
330
1F
100
AcDbEntity
  8
0
100
AcDbLine
 10
657.1791352886303
 20
377.25
 30
0.0
 11
737.1791352886303
 21
377.25
 31
0.0
  0
LINE
  5
C2B
330
1F
100
AcDbEntity
  8
0
100
AcDbLine
 10
737.1791352886303
 20
377.25
 30
0.0
 11
737.1791352886303
 21
384.0
 31
0.0
  0
LINE
  5
C2C
330
1F
100
AcDbEntity
  8
0
100
AcDbLine
 10
737.1791352886303
 20
377.25
 30
0.0
 11
737.1791352886303
 21
372.5
 31
0.0
  0
LINE
  5
C2D
330
1F
100
AcDbEntity
  8
0
100
AcDbLine
 10
657.1791352886303
 20
379.25
 30
0.0
 11
657.1791352886303
 21
377.25
 31
0.0
  0
LINE
  5
C2E
330
1F
100
AcDbEntity
  8
0
100
AcDbLine
 10
657.1791352886303
 20
377.25
 30
0.0
 11
657.1791352886303
 21
372.5
 31
0.0
  0
LINE
  5
C2F
330
1F
100
AcDbEntity
  8
0
100
AcDbLine
 10
657.1791352886303
 20
384.0
 30
0.0
 11
657.1791352886303
 21
379.25
 31
0.0
  0
LINE
  5
C34
330
1F
100
AcDbEntity
  8
0
100
AcDbLine
 10
786.4291352886303
 20
252.0
 30
0.0
 11
793.1791352886303
 21
252.0
 31
0.0
  0
LINE
  5
C3D
330
1F
100
AcDbEntity
  8
0
100
AcDbLine
 10
737.1791352886303
 20
374.5
 30
0.0
 11
657.1791352886303
 21
374.5
 31
0.0
  0
LINE
  5
C3F
330
1F
100
AcDbEntity
  8
0
100
AcDbLine
 10
657.1791352886303
 20
0.0000000000000568
 30
0.0
 11
737.1791352886303
 21
-0.0000000000000568
 31
0.0
  0
LINE
  5
C40
330
1F
100
AcDbEntity
  8
0
100
AcDbLine
 10
657.1791352886303
 20
2.000000000000057
 30
0.0
 11
737.1791352886303
 21
1.999999999999943
 31
0.0
  0
LINE
  5
C41
330
1F
100
AcDbEntity
  8
0
100
AcDbLine
 10
657.1791352886303
 20
4.000000000000057
 30
0.0
 11
737.1791352886303
 21
3.999999999999943
 31
0.0
  0
LINE
  5
C42
330
1F
100
AcDbEntity
  8
0
100
AcDbLine
 10
737.1791352886303
 20
6.749999999999943
 30
0.0
 11
657.1791352886303
 21
6.750000000000057
 31
0.0
  0
LINE
  5
C43
330
1F
100
AcDbEntity
  8
0
100
AcDbLine
 10
657.1791352886303
 20
6.750000000000057
 30
0.0
 11
657.1791352886303
 21
0.0000000000000568
 31
0.0
  0
LINE
  5
C44
330
1F
100
AcDbEntity
  8
0
100
AcDbLine
 10
657.1791352886303
 20
6.750000000000057
 30
0.0
 11
657.1791352886303
 21
11.50000000000006
 31
0.0
  0
LINE
  5
C45
330
1F
100
AcDbEntity
  8
0
100
AcDbLine
 10
737.1791352886303
 20
-0.0000000000000568
 30
0.0
 11
737.1791352886303
 21
4.749999999999943
 31
0.0
  0
LINE
  5
C46
330
1F
100
AcDbEntity
  8
0
100
AcDbLine
 10
737.1791352886303
 20
4.749999999999943
 30
0.0
 11
737.1791352886303
 21
6.749999999999943
 31
0.0
  0
LINE
  5
C47
330
1F
100
AcDbEntity
  8
0
100
AcDbLine
 10
737.1791352886303
 20
6.749999999999943
 30
0.0
 11
737.1791352886303
 21
11.49999999999994
 31
0.0
  0
LINE
  5
C48
330
1F
100
AcDbEntity
  8
0
100
AcDbLine
 10
271.9291352886303
 20
248.0
 30
0.0
 11
271.9291352886303
 21
328.0
 31
0.0
  0
LINE
  5
C49
330
1F
100
AcDbEntity
  8
0
100
AcDbLine
 10
269.1791352886303
 20
328.0
 30
0.0
 11
269.1791352886303
 21
248.0
 31
0.0
  0
LINE
  5
C4A
330
1F
100
AcDbEntity
  8
0
100
AcDbLine
 10
267.1791352886303
 20
328.0
 30
0.0
 11
267.1791352886303
 21
248.0
 31
0.0
  0
LINE
  5
C4B
330
1F
100
AcDbEntity
  8
0
100
AcDbLine
 10
265.1791352886303
 20
328.0
 30
0.0
 11
265.1791352886303
 21
248.0
 31
0.0
  0
LINE
  5
C4C
330
1F
100
AcDbEntity
  8
0
100
AcDbLine
 10
271.9291352886303
 20
248.0
 30
0.0
 11
276.6791352886303
 21
248.0
 31
0.0
  0
LINE
  5
C4D
330
1F
100
AcDbEntity
  8
0
100
AcDbLine
 10
269.9291352886303
 20
248.0
 30
0.0
 11
271.9291352886303
 21
248.0
 31
0.0
  0
LINE
  5
C4E
330
1F
100
AcDbEntity
  8
0
100
AcDbLine
 10
265.1791352886303
 20
248.0
 30
0.0
 11
269.9291352886303
 21
248.0
 31
0.0
  0
LINE
  5
C4F
330
1F
100
AcDbEntity
  8
0
100
AcDbLine
 10
271.9291352886303
 20
328.0
 30
0.0
 11
276.6791352886303
 21
328.0
 31
0.0
  0
LINE
  5
C50
330
1F
100
AcDbEntity
  8
0
100
AcDbLine
 10
271.9291352886303
 20
328.0
 30
0.0
 11
265.1791352886303
 21
328.0
 31
0.0
  0
LINE
  5
C68
330
1F
100
AcDbEntity
  8
0
100
AcDbLine
 10
519.6309056910095
 20
372.5
 30
0.0
 11
557.6309056910095
 21
372.5
 31
0.0
  0
LINE
  5
C69
330
1F
100
AcDbEntity
  8
0
100
AcDbLine
 10
557.6309056910095
 20
379.25
 30
0.0
 11
519.6309056910095
 21
379.25
 31
0.0
  0
LINE
  5
C6A
330
1F
100
AcDbEntity
  8
0
100
AcDbLine
 10
519.6309056910095
 20
374.5
 30
0.0
 11
557.6309056910095
 21
374.5
 31
0.0
  0
LINE
  5
C6B
330
1F
100
AcDbEntity
  8
0
100
AcDbLine
 10
519.6309056910095
 20
376.5
 30
0.0
 11
557.6309056910095
 21
376.5
 31
0.0
  0
LINE
  5
C6C
330
1F
100
AcDbEntity
  8
0
100
AcDbLine
 10
519.6309056910095
 20
379.25
 30
0.0
 11
519.6309056910095
 21
372.5
 31
0.0
  0
LINE
  5
C6D
330
1F
100
AcDbEntity
  8
0
100
AcDbLine
 10
557.6309056910095
 20
372.5
 30
0.0
 11
557.6309056910095
 21
377.25
 31
0.0
  0
LINE
  5
C6E
330
1F
100
AcDbEntity
  8
0
100
AcDbLine
 10
557.6309056910095
 20
377.25
 30
0.0
 11
557.6309056910095
 21
379.25
 31
0.0
  0
LINE
  5
C70
330
1F
100
AcDbEntity
  8
0
100
AcDbLine
 10
269.9291352886303
 20
67.0
 30
0.0
 11
265.1791352886303
 21
67.0
 31
0.0
  0
LINE
  5
C71
330
1F
100
AcDbEntity
  8
0
100
AcDbLine
 10
269.9291352886303
 20
29.0
 30
0.0
 11
265.1791352886303
 21
29.0
 31
0.0
  0
LINE
  5
C74
330
1F
100
AcDbEntity
  8
0
100
AcDbLine
 10
519.6309056910095
 20
379.25
 30
0.0
 11
519.6309056910095
 21
384.0
 31
0.0
  0
LINE
  5
C75
330
1F
100
AcDbEntity
  8
0
100
AcDbLine
 10
557.6309056910095
 20
379.25
 30
0.0
 11
557.6309056910095
 21
384.0
 31
0.0
  0
LINE
  5
C76
330
1F
100
AcDbEntity
  8
0
100
AcDbLine
 10
500.4291352886303
 20
628.0
 30
0.0
 11
500.4291352886303
 21
708.0
 31
0.0
  0
LINE
  5
C78
330
1F
100
AcDbEntity
  8
0
100
AcDbLine
 10
505.1791352886303
 20
628.0
 30
0.0
 11
505.1791352886303
 21
708.0
 31
0.0
  0
LINE
  5
C79
330
1F
100
AcDbEntity
  8
0
100
AcDbLine
 10
500.4291352886303
 20
708.0
 30
0.0
 11
505.1791352886303
 21
708.0
 31
0.0
  0
LINE
  5
C7A
330
1F
100
AcDbEntity
  8
0
100
AcDbLine
 10
505.1791352886303
 20
628.0
 30
0.0
 11
500.4291352886303
 21
628.0
 31
0.0
  0
LINE
  5
C7C
330
1F
100
AcDbEntity
  8
0
100
AcDbLine
 10
503.1791352886303
 20
628.0
 30
0.0
 11
503.1791352886303
 21
708.0
 31
0.0
  0
LINE
  5
C7D
330
1F
100
AcDbEntity
  8
0
100
AcDbLine
 10
501.1791352886303
 20
628.0
 30
0.0
 11
501.1791352886303
 21
708.0
 31
0.0
  0
LINE
  5
C7E
330
1F
100
AcDbEntity
  8
0
100
AcDbLine
 10
500.4291352886303
 20
780.0
 30
0.0
 11
500.4291352886303
 21
860.0
 31
0.0
  0
LINE
  5
C7F
330
1F
100
AcDbEntity
  8
0
100
AcDbLine
 10
505.1791352886303
 20
780.0
 30
0.0
 11
505.1791352886303
 21
860.0
 31
0.0
  0
LINE
  5
C80
330
1F
100
AcDbEntity
  8
0
100
AcDbLine
 10
503.1791352886303
 20
780.0
 30
0.0
 11
503.1791352886303
 21
860.0
 31
0.0
  0
LINE
  5
C81
330
1F
100
AcDbEntity
  8
0
100
AcDbLine
 10
501.1791352886303
 20
780.0
 30
0.0
 11
501.1791352886303
 21
860.0
 31
0.0
  0
LINE
  5
C82
330
1F
100
AcDbEntity
  8
0
100
AcDbLine
 10
505.1791352886303
 20
780.0
 30
0.0
 11
500.4291352886303
 21
780.0
 31
0.0
  0
LINE
  5
C83
330
1F
100
AcDbEntity
  8
0
100
AcDbLine
 10
500.4291352886303
 20
860.0
 30
0.0
 11
505.1791352886303
 21
860.0
 31
0.0
  0
LWPOLYLINE
  5
D7C
330
1F
100
AcDbEntity
  8
0
100
AcDbPolyline
 90
        4
 70
     1
 43
0.0
 10
787.1791352886303
 20
-6.0
 10
799.1791352886303
 20
-6.0
 10
799.1791352886303
 20
6.0
 10
787.1791352886303
 20
6.0
  0
LWPOLYLINE
  5
D7F
330
1F
100
AcDbEntity
  8
0
100
AcDbPolyline
 90
        4
 70
     1
 43
0.0
 10
788.0541352886303
 20
-102.0
 10
800.0541352886303
 20
-102.0
 10
800.0541352886303
 20
-90.0
 10
788.0541352886303
 20
-90.0
  0
LWPOLYLINE
  5
D87
330
1F
100
AcDbEntity
  8
0
100
AcDbPolyline
 90
        4
 70
     1
 43
0.0
 10
692.0541352886303
 20
-102.0
 10
704.0541352886303
 20
-102.0
 10
704.0541352886303
 20
-90.0
 10
692.0541352886303
 20
-90.0
  0
LWPOLYLINE
  5
D8C
330
1F
100
AcDbEntity
  8
0
100
AcDbPolyline
 90
        4
 70
     1
 43
0.0
 10
596.0541352886303
 20
-102.0
 10
608.0541352886303
 20
-102.0
 10
608.0541352886303
 20
-90.0
 10
596.0541352886303
 20
-90.0
  0
LWPOLYLINE
  5
D8D
330
1F
100
AcDbEntity
  8
0
100
AcDbPolyline
 90
        4
 70
     1
 43
0.0
 10
560.0541352886303
 20
-102.0
 10
572.0541352886303
 20
-102.0
 10
572.0541352886303
 20
-90.0
 10
560.0541352886303
 20
-90.0
  0
LWPOLYLINE
  5
D8E
330
1F
100
AcDbEntity
  8
0
100
AcDbPolyline
 90
        4
 70
     1
 43
0.0
 10
560.0541352886303
 20
-102.0
 10
572.0541352886303
 20
-102.0
 10
572.0541352886303
 20
-90.0
 10
560.0541352886303
 20
-90.0
  0
LWPOLYLINE
  5
D8F
330
1F
100
AcDbEntity
  8
0
100
AcDbPolyline
 90
        4
 70
     1
 43
0.0
 10
560.0541352886303
 20
-102.0
 10
572.0541352886303
 20
-102.0
 10
572.0541352886303
 20
-90.0
 10
560.0541352886303
 20
-90.0
  0
LWPOLYLINE
  5
D90
330
1F
100
AcDbEntity
  8
0
100
AcDbPolyline
 90
        4
 70
     1
 43
0.0
 10
560.0541352886303
 20
-102.0
 10
572.0541352886303
 20
-102.0
 10
572.0541352886303
 20
-90.0
 10
560.0541352886303
 20
-90.0
  0
LWPOLYLINE
  5
D91
330
1F
100
AcDbEntity
  8
0
100
AcDbPolyline
 90
        4
 70
     1
 43
0.0
 10
560.0541352886303
 20
-102.0
 10
572.0541352886303
 20
-102.0
 10
572.0541352886303
 20
-90.0
 10
560.0541352886303
 20
-90.0
  0
LWPOLYLINE
  5
D92
330
1F
100
AcDbEntity
  8
0
100
AcDbPolyline
 90
        4
 70
     1
 43
0.0
 10
488.0541352886303
 20
-102.0
 10
500.0541352886303
 20
-102.0
 10
500.0541352886303
 20
-90.0
 10
488.0541352886303
 20
-90.0
  0
LWPOLYLINE
  5
D93
330
1F
100
AcDbEntity
  8
0
100
AcDbPolyline
 90
        4
 70
     1
 43
0.0
 10
488.0541352886303
 20
-102.0
 10
500.0541352886303
 20
-102.0
 10
500.0541352886303
 20
-90.0
 10
488.0541352886303
 20
-90.0
  0
LWPOLYLINE
  5
D94
330
1F
100
AcDbEntity
  8
0
100
AcDbPolyline
 90
        4
 70
     1
 43
0.0
 10
488.0541352886303
 20
-102.0
 10
500.0541352886303
 20
-102.0
 10
500.0541352886303
 20
-90.0
 10
488.0541352886303
 20
-90.0
  0
LWPOLYLINE
  5
D95
330
1F
100
AcDbEntity
  8
0
100
AcDbPolyline
 90
        4
 70
     1
 43
0.0
 10
488.0541352886303
 20
-102.0
 10
500.0541352886303
 20
-102.0
 10
500.0541352886303
 20
-90.0
 10
488.0541352886303
 20
-90.0
  0
LWPOLYLINE
  5
D96
330
1F
100
AcDbEntity
  8
0
100
AcDbPolyline
 90
        4
 70
     1
 43
0.0
 10
488.0541352886303
 20
-102.0
 10
500.0541352886303
 20
-102.0
 10
500.0541352886303
 20
-90.0
 10
488.0541352886303
 20
-90.0
  0
LWPOLYLINE
  5
D97
330
1F
100
AcDbEntity
  8
0
100
AcDbPolyline
 90
        4
 70
     1
 43
0.0
 10
452.0541352886303
 20
-102.0
 10
464.0541352886303
 20
-102.0
 10
464.0541352886303
 20
-90.0
 10
452.0541352886303
 20
-90.0
  0
LWPOLYLINE
  5
D98
330
1F
100
AcDbEntity
  8
0
100
AcDbPolyline
 90
        4
 70
     1
 43
0.0
 10
452.0541352886303
 20
-102.0
 10
464.0541352886303
 20
-102.0
 10
464.0541352886303
 20
-90.0
 10
452.0541352886303
 20
-90.0
  0
LWPOLYLINE
  5
D99
330
1F
100
AcDbEntity
  8
0
100
AcDbPolyline
 90
        4
 70
     1
 43
0.0
 10
452.0541352886303
 20
-102.0
 10
464.0541352886303
 20
-102.0
 10
464.0541352886303
 20
-90.0
 10
452.0541352886303
 20
-90.0
  0
LWPOLYLINE
  5
D9A
330
1F
100
AcDbEntity
  8
0
100
AcDbPolyline
 90
        4
 70
     1
 43
0.0
 10
452.0541352886303
 20
-102.0
 10
464.0541352886303
 20
-102.0
 10
464.0541352886303
 20
-90.0
 10
452.0541352886303
 20
-90.0
  0
LWPOLYLINE
  5
D9B
330
1F
100
AcDbEntity
  8
0
100
AcDbPolyline
 90
        4
 70
     1
 43
0.0
 10
452.0541352886303
 20
-102.0
 10
464.0541352886303
 20
-102.0
 10
464.0541352886303
 20
-90.0
 10
452.0541352886303
 20
-90.0
  0
LWPOLYLINE
  5
D9C
330
1F
100
AcDbEntity
  8
0
100
AcDbPolyline
 90
        4
 70
     1
 43
0.0
 10
356.0541352886303
 20
-102.0
 10
368.0541352886303
 20
-102.0
 10
368.0541352886303
 20
-90.0
 10
356.0541352886303
 20
-90.0
  0
LWPOLYLINE
  5
D9D
330
1F
100
AcDbEntity
  8
0
100
AcDbPolyline
 90
        4
 70
     1
 43
0.0
 10
356.0541352886303
 20
-102.0
 10
368.0541352886303
 20
-102.0
 10
368.0541352886303
 20
-90.0
 10
356.0541352886303
 20
-90.0
  0
LWPOLYLINE
  5
D9E
330
1F
100
AcDbEntity
  8
0
100
AcDbPolyline
 90
        4
 70
     1
 43
0.0
 10
356.0541352886303
 20
-102.0
 10
368.0541352886303
 20
-102.0
 10
368.0541352886303
 20
-90.0
 10
356.0541352886303
 20
-90.0
  0
LWPOLYLINE
  5
D9F
330
1F
100
AcDbEntity
  8
0
100
AcDbPolyline
 90
        4
 70
     1
 43
0.0
 10
356.0541352886303
 20
-102.0
 10
368.0541352886303
 20
-102.0
 10
368.0541352886303
 20
-90.0
 10
356.0541352886303
 20
-90.0
  0
LWPOLYLINE
  5
DA0
330
1F
100
AcDbEntity
  8
0
100
AcDbPolyline
 90
        4
 70
     1
 43
0.0
 10
356.0541352886303
 20
-102.0
 10
368.0541352886303
 20
-102.0
 10
368.0541352886303
 20
-90.0
 10
356.0541352886303
 20
-90.0
  0
LWPOLYLINE
  5
DA1
330
1F
100
AcDbEntity
  8
0
100
AcDbPolyline
 90
        4
 70
     1
 43
0.0
 10
260.0541352886303
 20
-102.0
 10
272.0541352886303
 20
-102.0
 10
272.0541352886303
 20
-90.0
 10
260.0541352886303
 20
-90.0
  0
LWPOLYLINE
  5
DA2
330
1F
100
AcDbEntity
  8
0
100
AcDbPolyline
 90
        4
 70
     1
 43
0.0
 10
260.0541352886303
 20
-102.0
 10
272.0541352886303
 20
-102.0
 10
272.0541352886303
 20
-90.0
 10
260.0541352886303
 20
-90.0
  0
LWPOLYLINE
  5
DA3
330
1F
100
AcDbEntity
  8
0
100
AcDbPolyline
 90
        4
 70
     1
 43
0.0
 10
260.0541352886303
 20
-102.0
 10
272.0541352886303
 20
-102.0
 10
272.0541352886303
 20
-90.0
 10
260.0541352886303
 20
-90.0
  0
LWPOLYLINE
  5
DA4
330
1F
100
AcDbEntity
  8
0
100
AcDbPolyline
 90
        4
 70
     1
 43
0.0
 10
260.0541352886303
 20
-102.0
 10
272.0541352886303
 20
-102.0
 10
272.0541352886303
 20
-90.0
 10
260.0541352886303
 20
-90.0
  0
LWPOLYLINE
  5
DA5
330
1F
100
AcDbEntity
  8
0
100
AcDbPolyline
 90
        4
 70
     1
 43
0.0
 10
260.0541352886303
 20
-102.0
 10
272.0541352886303
 20
-102.0
 10
272.0541352886303
 20
-90.0
 10
260.0541352886303
 20
-90.0
  0
LWPOLYLINE
  5
DA6
330
1F
100
AcDbEntity
  8
0
100
AcDbPolyline
 90
        4
 70
     1
 43
0.0
 10
164.0541352886303
 20
-102.0
 10
176.0541352886303
 20
-102.0
 10
176.0541352886303
 20
-90.0
 10
164.0541352886303
 20
-90.0
  0
LWPOLYLINE
  5
DA7
330
1F
100
AcDbEntity
  8
0
100
AcDbPolyline
 90
        4
 70
     1
 43
0.0
 10
164.0541352886303
 20
-102.0
 10
176.0541352886303
 20
-102.0
 10
176.0541352886303
 20
-90.0
 10
164.0541352886303
 20
-90.0
  0
LWPOLYLINE
  5
DA8
330
1F
100
AcDbEntity
  8
0
100
AcDbPolyline
 90
        4
 70
     1
 43
0.0
 10
164.0541352886303
 20
-102.0
 10
176.0541352886303
 20
-102.0
 10
176.0541352886303
 20
-90.0
 10
164.0541352886303
 20
-90.0
  0
LWPOLYLINE
  5
DA9
330
1F
100
AcDbEntity
  8
0
100
AcDbPolyline
 90
        4
 70
     1
 43
0.0
 10
164.0541352886303
 20
-102.0
 10
176.0541352886303
 20
-102.0
 10
176.0541352886303
 20
-90.0
 10
164.0541352886303
 20
-90.0
  0
LWPOLYLINE
  5
DAA
330
1F
100
AcDbEntity
  8
0
100
AcDbPolyline
 90
        4
 70
     1
 43
0.0
 10
164.0541352886303
 20
-102.0
 10
176.0541352886303
 20
-102.0
 10
176.0541352886303
 20
-90.0
 10
164.0541352886303
 20
-90.0
  0
LWPOLYLINE
  5
DAB
330
1F
100
AcDbEntity
  8
0
100
AcDbPolyline
 90
        4
 70
     1
 43
0.0
 10
488.0541352886303
 20
-144.0
 10
500.0541352886303
 20
-144.0
 10
500.0541352886303
 20
-132.0
 10
488.0541352886303
 20
-132.0
  0
LWPOLYLINE
  5
DAC
330
1F
100
AcDbEntity
  8
0
100
AcDbPolyline
 90
        4
 70
     1
 43
0.0
 10
488.0541352886303
 20
-144.0
 10
500.0541352886303
 20
-144.0
 10
500.0541352886303
 20
-132.0
 10
488.0541352886303
 20
-132.0
  0
LWPOLYLINE
  5
DAD
330
1F
100
AcDbEntity
  8
0
100
AcDbPolyline
 90
        4
 70
     1
 43
0.0
 10
488.0541352886303
 20
-144.0
 10
500.0541352886303
 20
-144.0
 10
500.0541352886303
 20
-132.0
 10
488.0541352886303
 20
-132.0
  0
LWPOLYLINE
  5
DAE
330
1F
100
AcDbEntity
  8
0
100
AcDbPolyline
 90
        4
 70
     1
 43
0.0
 10
488.0541352886303
 20
-144.0
 10
500.0541352886303
 20
-144.0
 10
500.0541352886303
 20
-132.0
 10
488.0541352886303
 20
-132.0
  0
LWPOLYLINE
  5
DAF
330
1F
100
AcDbEntity
  8
0
100
AcDbPolyline
 90
        4
 70
     1
 43
0.0
 10
488.0541352886303
 20
-144.0
 10
500.0541352886303
 20
-144.0
 10
500.0541352886303
 20
-132.0
 10
488.0541352886303
 20
-132.0
  0
LWPOLYLINE
  5
DB0
330
1F
100
AcDbEntity
  8
0
100
AcDbPolyline
 90
        4
 70
     1
 43
0.0
 10
560.0541352886303
 20
-144.0
 10
572.0541352886303
 20
-144.0
 10
572.0541352886303
 20
-132.0
 10
560.0541352886303
 20
-132.0
  0
LWPOLYLINE
  5
DB1
330
1F
100
AcDbEntity
  8
0
100
AcDbPolyline
 90
        4
 70
     1
 43
0.0
 10
560.0541352886303
 20
-144.0
 10
572.0541352886303
 20
-144.0
 10
572.0541352886303
 20
-132.0
 10
560.0541352886303
 20
-132.0
  0
LWPOLYLINE
  5
DB2
330
1F
100
AcDbEntity
  8
0
100
AcDbPolyline
 90
        4
 70
     1
 43
0.0
 10
560.0541352886303
 20
-144.0
 10
572.0541352886303
 20
-144.0
 10
572.0541352886303
 20
-132.0
 10
560.0541352886303
 20
-132.0
  0
LWPOLYLINE
  5
DB3
330
1F
100
AcDbEntity
  8
0
100
AcDbPolyline
 90
        4
 70
     1
 43
0.0
 10
560.0541352886303
 20
-144.0
 10
572.0541352886303
 20
-144.0
 10
572.0541352886303
 20
-132.0
 10
560.0541352886303
 20
-132.0
  0
LWPOLYLINE
  5
DB4
330
1F
100
AcDbEntity
  8
0
100
AcDbPolyline
 90
        4
 70
     1
 43
0.0
 10
560.0541352886303
 20
-144.0
 10
572.0541352886303
 20
-144.0
 10
572.0541352886303
 20
-132.0
 10
560.0541352886303
 20
-132.0
  0
LINE
  5
DB5
330
1F
100
AcDbEntity
  8
0
100
AcDbLine
 10
488.0541352886303
 20
-90.0
 30
0.0
 11
488.0541352886303
 21
-144.0
 31
0.0
  0
LINE
  5
DB6
330
1F
100
AcDbEntity
  8
0
100
AcDbLine
 10
572.0541352886303
 20
-90.0
 30
0.0
 11
572.0541352886303
 21
-144.0
 31
0.0
  0
LINE
  5
DBA
330
1F
100
AcDbEntity
  8
0
100
AcDbLine
 10
494.0541352886303
 20
-102.0
 30
0.0
 11
496.0541352886303
 21
-102.0
 31
0.0
  0
LINE
  5
DBB
330
1F
100
AcDbEntity
  8
0
100
AcDbLine
 10
496.0541352886303
 20
-102.0
 30
0.0
 11
496.0541352886303
 21
-132.0
 31
0.0
  0
LINE
  5
DBC
330
1F
100
AcDbEntity
  8
0
100
AcDbLine
 10
495.0541352886303
 20
-102.0
 30
0.0
 11
493.0541352886303
 21
-102.0
 31
0.0
  0
LINE
  5
DBD
330
1F
100
AcDbEntity
  8
0
100
AcDbLine
 10
493.0541352886303
 20
-102.0
 30
0.0
 11
493.0541352886303
 21
-132.0
 31
0.0
  0
LINE
  5
DBF
330
1F
100
AcDbEntity
  8
0
100
AcDbLine
 10
567.0541352886303
 20
-102.0
 30
0.0
 11
567.0541352886303
 21
-132.0
 31
0.0
  0
LINE
  5
DC0
330
1F
100
AcDbEntity
  8
0
100
AcDbLine
 10
564.0541352886303
 20
-102.0
 30
0.0
 11
564.0541352886303
 21
-132.0
 31
0.0
  0
LWPOLYLINE
  5
DC1
330
1F
100
AcDbEntity
  8
0
100
AcDbPolyline
 90
        4
 70
     1
 43
0.0
 10
572.0541352886303
 20
-144.0
 10
560.0541352886303
 20
-144.0
 10
560.0541352886303
 20
-132.0
 10
572.0541352886303
 20
-132.0
  0
LWPOLYLINE
  5
DC2
330
1F
100
AcDbEntity
  8
0
100
AcDbPolyline
 90
        4
 70
     1
 43
0.0
 10
572.0541352886303
 20
-144.0
 10
560.0541352886303
 20
-144.0
 10
560.0541352886303
 20
-132.0
 10
572.0541352886303
 20
-132.0
  0
LWPOLYLINE
  5
DC3
330
1F
100
AcDbEntity
  8
0
100
AcDbPolyline
 90
        4
 70
     1
 43
0.0
 10
572.0541352886303
 20
-144.0
 10
560.0541352886303
 20
-144.0
 10
560.0541352886303
 20
-132.0
 10
572.0541352886303
 20
-132.0
  0
LWPOLYLINE
  5
DC4
330
1F
100
AcDbEntity
  8
0
100
AcDbPolyline
 90
        4
 70
     1
 43
0.0
 10
572.0541352886303
 20
-144.0
 10
560.0541352886303
 20
-144.0
 10
560.0541352886303
 20
-132.0
 10
572.0541352886303
 20
-132.0
  0
LWPOLYLINE
  5
DC5
330
1F
100
AcDbEntity
  8
0
100
AcDbPolyline
 90
        4
 70
     1
 43
0.0
 10
572.0541352886303
 20
-144.0
 10
560.0541352886303
 20
-144.0
 10
560.0541352886303
 20
-132.0
 10
572.0541352886303
 20
-132.0
  0
LINE
  5
DC6
330
1F
100
AcDbEntity
  8
0
100
AcDbLine
 10
565.0541352886303
 20
-102.0
 30
0.0
 11
567.0541352886303
 21
-102.0
 31
0.0
  0
LINE
  5
DC7
330
1F
100
AcDbEntity
  8
0
100
AcDbLine
 10
566.0541352886303
 20
-102.0
 30
0.0
 11
564.0541352886303
 21
-102.0
 31
0.0
  0
LWPOLYLINE
  5
DC8
330
1F
100
AcDbEntity
  8
0
100
AcDbPolyline
 90
        4
 70
     1
 43
0.0
 10
572.0541352886303
 20
-102.0
 10
560.0541352886303
 20
-102.0
 10
560.0541352886303
 20
-90.0
 10
572.0541352886303
 20
-90.0
  0
LWPOLYLINE
  5
DC9
330
1F
100
AcDbEntity
  8
0
100
AcDbPolyline
 90
        4
 70
     1
 43
0.0
 10
572.0541352886303
 20
-102.0
 10
560.0541352886303
 20
-102.0
 10
560.0541352886303
 20
-90.0
 10
572.0541352886303
 20
-90.0
  0
LWPOLYLINE
  5
DCA
330
1F
100
AcDbEntity
  8
0
100
AcDbPolyline
 90
        4
 70
     1
 43
0.0
 10
572.0541352886303
 20
-102.0
 10
560.0541352886303
 20
-102.0
 10
560.0541352886303
 20
-90.0
 10
572.0541352886303
 20
-90.0
  0
LWPOLYLINE
  5
DCB
330
1F
100
AcDbEntity
  8
0
100
AcDbPolyline
 90
        4
 70
     1
 43
0.0
 10
572.0541352886303
 20
-102.0
 10
560.0541352886303
 20
-102.0
 10
560.0541352886303
 20
-90.0
 10
572.0541352886303
 20
-90.0
  0
LWPOLYLINE
  5
DCC
330
1F
100
AcDbEntity
  8
0
100
AcDbPolyline
 90
        4
 70
     1
 43
0.0
 10
572.0541352886303
 20
-102.0
 10
560.0541352886303
 20
-102.0
 10
560.0541352886303
 20
-90.0
 10
572.0541352886303
 20
-90.0
  0
LINE
  5
DCD
330
1F
100
AcDbEntity
  8
0
100
AcDbLine
 10
488.0541352886303
 20
-132.0
 30
0.0
 11
572.0541352886303
 21
-132.0
 31
0.0
  0
LINE
  5
DD3
330
1F
100
AcDbEntity
  8
0
100
AcDbLine
 10
488.0541352886303
 20
-123.0
 30
0.0
 11
493.0541352886303
 21
-123.0
 31
0.0
  0
LINE
  5
DD4
330
1F
100
AcDbEntity
  8
0
100
AcDbLine
 10
488.0541352886303
 20
-114.0
 30
0.0
 11
493.0541352886303
 21
-114.0
 31
0.0
  0
LINE
  5
DD5
330
1F
100
AcDbEntity
  8
0
100
AcDbLine
 10
496.0541352886303
 20
-114.0
 30
0.0
 11
564.0541352886303
 21
-114.0
 31
0.0
  0
LINE
  5
DD6
330
1F
100
AcDbEntity
  8
0
100
AcDbLine
 10
496.0541352886303
 20
-123.0
 30
0.0
 11
564.0541352886303
 21
-123.0
 31
0.0
  0
LINE
  5
DD7
330
1F
100
AcDbEntity
  8
0
100
AcDbLine
 10
567.0541352886303
 20
-123.0
 30
0.0
 11
572.0541352886303
 21
-123.0
 31
0.0
  0
LINE
  5
DD8
330
1F
100
AcDbEntity
  8
0
100
AcDbLine
 10
567.0541352886303
 20
-114.0
 30
0.0
 11
572.0541352886303
 21
-114.0
 31
0.0
  0
LINE
  5
E36
330
1F
100
AcDbEntity
  8
0
100
AcDbLine
 10
169.1791352886303
 20
586.0
 30
0.0
 11
169.1791352886303
 21
598.0
 31
0.0
  0
LWPOLYLINE
  5
ED5
330
1F
100
AcDbEntity
  8
0
100
AcDbPolyline
 90
        4
 70
     1
 43
0.0
 10
122.0541352886303
 20
402.0
 10
134.0541352886303
 20
402.0
 10
134.0541352886303
 20
414.0
 10
122.0541352886303
 20
414.0
  0
LWPOLYLINE
  5
ED6
330
1F
100
AcDbEntity
  8
0
100
AcDbPolyline
 90
        4
 70
     1
 43
0.0
 10
122.0541352886303
 20
402.0
 10
134.0541352886303
 20
402.0
 10
134.0541352886303
 20
414.0
 10
122.0541352886303
 20
414.0
  0
LWPOLYLINE
  5
ED7
330
1F
100
AcDbEntity
  8
0
100
AcDbPolyline
 90
        4
 70
     1
 43
0.0
 10
122.0541352886303
 20
402.0
 10
134.0541352886303
 20
402.0
 10
134.0541352886303
 20
414.0
 10
122.0541352886303
 20
414.0
  0
LWPOLYLINE
  5
ED8
330
1F
100
AcDbEntity
  8
0
100
AcDbPolyline
 90
        4
 70
     1
 43
0.0
 10
122.0541352886303
 20
402.0
 10
134.0541352886303
 20
402.0
 10
134.0541352886303
 20
414.0
 10
122.0541352886303
 20
414.0
  0
LWPOLYLINE
  5
ED9
330
1F
100
AcDbEntity
  8
0
100
AcDbPolyline
 90
        4
 70
     1
 43
0.0
 10
122.0541352886303
 20
402.0
 10
134.0541352886303
 20
402.0
 10
134.0541352886303
 20
414.0
 10
122.0541352886303
 20
414.0
  0
LWPOLYLINE
  5
EDA
330
1F
100
AcDbEntity
  8
0
100
AcDbPolyline
 90
        4
 70
     1
 43
0.0
 10
122.0541352886303
 20
450.0
 10
134.0541352886303
 20
450.0
 10
134.0541352886303
 20
462.0
 10
122.0541352886303
 20
462.0
  0
LWPOLYLINE
  5
EDB
330
1F
100
AcDbEntity
  8
0
100
AcDbPolyline
 90
        4
 70
     1
 43
0.0
 10
122.0541352886303
 20
450.0
 10
134.0541352886303
 20
450.0
 10
134.0541352886303
 20
462.0
 10
122.0541352886303
 20
462.0
  0
LWPOLYLINE
  5
EDC
330
1F
100
AcDbEntity
  8
0
100
AcDbPolyline
 90
        4
 70
     1
 43
0.0
 10
122.0541352886303
 20
450.0
 10
134.0541352886303
 20
450.0
 10
134.0541352886303
 20
462.0
 10
122.0541352886303
 20
462.0
  0
LWPOLYLINE
  5
EDD
330
1F
100
AcDbEntity
  8
0
100
AcDbPolyline
 90
        4
 70
     1
 43
0.0
 10
122.0541352886303
 20
450.0
 10
134.0541352886303
 20
450.0
 10
134.0541352886303
 20
462.0
 10
122.0541352886303
 20
462.0
  0
LWPOLYLINE
  5
EDE
330
1F
100
AcDbEntity
  8
0
100
AcDbPolyline
 90
        4
 70
     1
 43
0.0
 10
122.0541352886303
 20
450.0
 10
134.0541352886303
 20
450.0
 10
134.0541352886303
 20
462.0
 10
122.0541352886303
 20
462.0
  0
LINE
  5
EDF
330
1F
100
AcDbEntity
  8
0
100
AcDbLine
 10
122.0541352886303
 20
462.0
 30
0.0
 11
176.0541352886303
 21
462.0
 31
0.0
  0
LINE
  5
EE2
330
1F
100
AcDbEntity
  8
0
100
AcDbLine
 10
164.0541352886303
 20
454.0
 30
0.0
 11
134.0541352886303
 21
454.0
 31
0.0
  0
LINE
  5
EE3
330
1F
100
AcDbEntity
  8
0
100
AcDbLine
 10
134.0541352886303
 20
454.0
 30
0.0
 11
134.0541352886303
 21
456.0
 31
0.0
  0
LINE
  5
EE4
330
1F
100
AcDbEntity
  8
0
100
AcDbLine
 10
134.0541352886303
 20
456.0
 30
0.0
 11
134.0541352886303
 21
458.0
 31
0.0
  0
LINE
  5
EE5
330
1F
100
AcDbEntity
  8
0
100
AcDbLine
 10
134.0541352886303
 20
458.0
 30
0.0
 11
164.0541352886303
 21
458.0
 31
0.0
  0
LINE
  5
EE7
330
1F
100
AcDbEntity
  8
0
100
AcDbLine
 10
164.0541352886303
 20
410.0
 30
0.0
 11
134.0541352886303
 21
410.0
 31
0.0
  0
LINE
  5
EE8
330
1F
100
AcDbEntity
  8
0
100
AcDbLine
 10
134.0541352886303
 20
406.0
 30
0.0
 11
164.0541352886303
 21
406.0
 31
0.0
  0
LWPOLYLINE
  5
EE9
330
1F
100
AcDbEntity
  8
0
100
AcDbPolyline
 90
        4
 70
     1
 43
0.0
 10
122.0541352886303
 20
414.0
 10
134.0541352886303
 20
414.0
 10
134.0541352886303
 20
402.0
 10
122.0541352886303
 20
402.0
  0
LINE
  5
EEA
330
1F
100
AcDbEntity
  8
0
100
AcDbLine
 10
122.0541352886303
 20
402.0
 30
0.0
 11
176.0541352886303
 21
402.0
 31
0.0
  0
LINE
  5
EEB
330
1F
100
AcDbEntity
  8
0
100
AcDbLine
 10
134.0541352886303
 20
462.0
 30
0.0
 11
134.0541352886303
 21
402.0
 31
0.0
  0
LINE
  5
EEC
330
1F
100
AcDbEntity
  8
0
100
AcDbLine
 10
143.0541352886303
 20
462.0
 30
0.0
 11
143.0541352886303
 21
458.0
 31
0.0
  0
LINE
  5
EED
330
1F
100
AcDbEntity
  8
0
100
AcDbLine
 10
152.0541352886303
 20
462.0
 30
0.0
 11
152.0541352886303
 21
458.0
 31
0.0
  0
LINE
  5
EEE
330
1F
100
AcDbEntity
  8
0
100
AcDbLine
 10
143.0541352886303
 20
454.0
 30
0.0
 11
143.0541352886303
 21
410.0
 31
0.0
  0
LINE
  5
EEF
330
1F
100
AcDbEntity
  8
0
100
AcDbLine
 10
152.0541352886303
 20
454.0
 30
0.0
 11
152.0541352886303
 21
410.0
 31
0.0
  0
LINE
  5
EF0
330
1F
100
AcDbEntity
  8
0
100
AcDbLine
 10
143.0541352886303
 20
406.0
 30
0.0
 11
143.0541352886303
 21
402.0
 31
0.0
  0
LINE
  5
EF1
330
1F
100
AcDbEntity
  8
0
100
AcDbLine
 10
152.0541352886303
 20
406.0
 30
0.0
 11
152.0541352886303
 21
402.0
 31
0.0
  0
LINE
  5
EF2
330
1F
100
AcDbEntity
  8
0
100
AcDbLine
 10
799.1791352886303
 20
-6.0
 30
0.0
 11
799.1791352886303
 21
-90.0
 31
0.0
  0
LINE
  5
EF5
330
1F
100
AcDbEntity
  8
0
100
AcDbLine
 10
794.6791352886303
 20
-6.0
 30
0.0
 11
794.6791352886303
 21
-90.0
 31
0.0
  0
LINE
  5
EF6
330
1F
100
AcDbEntity
  8
0
100
AcDbLine
 10
790.1791352886303
 20
-6.0
 30
0.0
 11
790.1791352886303
 21
-90.0
 31
0.0
  0
LINE
  5
EF7
330
1F
100
AcDbEntity
  8
0
100
AcDbLine
 10
788.0541352886303
 20
-102.0
 30
0.0
 11
704.0541352886303
 21
-102.0
 31
0.0
  0
LINE
  5
EF8
330
1F
100
AcDbEntity
  8
0
100
AcDbLine
 10
692.0541352886303
 20
-102.0
 30
0.0
 11
608.0541352886303
 21
-102.0
 31
0.0
  0
LINE
  5
EF9
330
1F
100
AcDbEntity
  8
0
100
AcDbLine
 10
596.0541352886303
 20
-102.0
 30
0.0
 11
572.0541352886303
 21
-102.0
 31
0.0
  0
LINE
  5
EFA
330
1F
100
AcDbEntity
  8
0
100
AcDbLine
 10
488.0541352886303
 20
-102.0
 30
0.0
 11
464.0541352886303
 21
-102.0
 31
0.0
  0
LINE
  5
EFB
330
1F
100
AcDbEntity
  8
0
100
AcDbLine
 10
452.0541352886303
 20
-102.0
 30
0.0
 11
368.0541352886303
 21
-102.0
 31
0.0
  0
LINE
  5
EFC
330
1F
100
AcDbEntity
  8
0
100
AcDbLine
 10
356.0541352886303
 20
-102.0
 30
0.0
 11
272.0541352886303
 21
-102.0
 31
0.0
  0
LINE
  5
EFD
330
1F
100
AcDbEntity
  8
0
100
AcDbLine
 10
260.0541352886303
 20
-102.0
 30
0.0
 11
176.0541352886303
 21
-102.0
 31
0.0
  0
LINE
  5
F16
330
1F
100
AcDbEntity
  8
0
100
AcDbLine
 10
260.0541352886303
 20
-97.5
 30
0.0
 11
176.0541352886303
 21
-97.5
 31
0.0
  0
LINE
  5
F17
330
1F
100
AcDbEntity
  8
0
100
AcDbLine
 10
260.0541352886303
 20
-93.0
 30
0.0
 11
176.0541352886303
 21
-93.0
 31
0.0
  0
LINE
  5
F18
330
1F
100
AcDbEntity
  8
0
100
AcDbLine
 10
356.0541352886303
 20
-97.5
 30
0.0
 11
272.0541352886303
 21
-97.5
 31
0.0
  0
LINE
  5
F19
330
1F
100
AcDbEntity
  8
0
100
AcDbLine
 10
356.0541352886303
 20
-93.0
 30
0.0
 11
272.0541352886303
 21
-93.0
 31
0.0
  0
LINE
  5
F1A
330
1F
100
AcDbEntity
  8
0
100
AcDbLine
 10
452.0541352886303
 20
-97.5
 30
0.0
 11
368.0541352886303
 21
-97.5
 31
0.0
  0
LINE
  5
F1B
330
1F
100
AcDbEntity
  8
0
100
AcDbLine
 10
452.0541352886303
 20
-93.0
 30
0.0
 11
368.0541352886303
 21
-93.0
 31
0.0
  0
LINE
  5
F1C
330
1F
100
AcDbEntity
  8
0
100
AcDbLine
 10
488.0541352886303
 20
-97.5
 30
0.0
 11
464.0541352886303
 21
-97.5
 31
0.0
  0
LINE
  5
F1D
330
1F
100
AcDbEntity
  8
0
100
AcDbLine
 10
488.0541352886303
 20
-93.0
 30
0.0
 11
464.0541352886303
 21
-93.0
 31
0.0
  0
LINE
  5
F1E
330
1F
100
AcDbEntity
  8
0
100
AcDbLine
 10
596.0541352886303
 20
-97.5
 30
0.0
 11
572.0541352886303
 21
-97.5
 31
0.0
  0
LINE
  5
F1F
330
1F
100
AcDbEntity
  8
0
100
AcDbLine
 10
596.0541352886303
 20
-93.0
 30
0.0
 11
572.0541352886303
 21
-93.0
 31
0.0
  0
LINE
  5
F20
330
1F
100
AcDbEntity
  8
0
100
AcDbLine
 10
692.0541352886303
 20
-97.5
 30
0.0
 11
608.0541352886303
 21
-97.5
 31
0.0
  0
LINE
  5
F21
330
1F
100
AcDbEntity
  8
0
100
AcDbLine
 10
692.0541352886303
 20
-93.0
 30
0.0
 11
608.0541352886303
 21
-93.0
 31
0.0
  0
LINE
  5
F22
330
1F
100
AcDbEntity
  8
0
100
AcDbLine
 10
788.0541352886303
 20
-97.5
 30
0.0
 11
704.0541352886303
 21
-97.5
 31
0.0
  0
LINE
  5
F23
330
1F
100
AcDbEntity
  8
0
100
AcDbLine
 10
788.0541352886303
 20
-93.0
 30
0.0
 11
704.0541352886303
 21
-93.0
 31
0.0
  0
LINE
  5
F71
330
1F
100
AcDbEntity
  8
0
100
AcDbLine
 10
276.6791352886303
 20
163.5
 30
0.0
 11
282.5722976281022
 21
163.5
 31
0.0
  0
LINE
  5
F72
330
1F
100
AcDbEntity
  8
0
100
AcDbLine
 10
282.5722976281022
 20
163.5
 30
0.0
 11
282.5722976281022
 21
128.5
 31
0.0
  0
LWPOLYLINE
  5
F73
330
1F
100
AcDbEntity
  8
0
100
AcDbPolyline
 90
        2
 70
     0
 43
0.0
 10
270.6791352886303
 20
163.5
 10
270.6791352886303
 20
148.3301380178332
  0
CIRCLE
  5
F74
330
1F
100
AcDbEntity
  8
0
100
AcDbCircle
 10
270.6791352886303
 20
146.0
 30
0.0
 40
2.330138017833178
  0
LWPOLYLINE
  5
F75
330
1F
100
AcDbEntity
  8
0
100
AcDbPolyline
 90
        2
 70
     0
 43
0.0
 10
262.8041352886303
 20
163.5
 10
262.8041352886303
 20
128.5
  0
LWPOLYLINE
  5
F76
330
1F
100
AcDbEntity
  8
0
100
AcDbPolyline
 90
        8
 70
     1
 43
0.0
 10
255.3041352886303
 20
141.27706778329
 10
258.6437526861503
 20
142.66038260248
 10
260.0270675053403
 20
146.0
 10
258.6437526861503
 20
149.33961739752
 10
255.3041352886303
 20
150.72293221671
 10
251.9645178911102
 20
149.33961739752
 10
250.5812030719203
 20
146.0
 10
251.9645178911102
 20
142.66038260248
  0
LWPOLYLINE
  5
F77
330
1F
100
AcDbEntity
  8
0
100
AcDbPolyline
 90
        2
 70
     0
 43
0.0
 10
270.6791352886303
 20
143.6698619821668
 10
270.6791352886303
 20
128.5
  0
LINE
  5
F78
330
1F
100
AcDbEntity
  8
0
100
AcDbLine
 10
262.8041352886303
 20
163.5
 30
0.0
 11
247.8041352886303
 21
163.5
 31
0.0
  0
LINE
  5
F79
330
1F
100
AcDbEntity
  8
0
100
AcDbLine
 10
247.8041352886303
 20
163.5
 30
0.0
 11
247.8041352886303
 21
128.5
 31
0.0
  0
LINE
  5
F7A
330
1F
100
AcDbEntity
  8
0
100
AcDbLine
 10
247.8041352886303
 20
128.5
 30
0.0
 11
262.8041352886303
 21
128.5
 31
0.0
  0
LINE
  5
F7B
330
1F
100
AcDbEntity
  8
0
100
AcDbLine
 10
267.0541352886303
 20
128.5
 30
0.0
 11
270.6791352886303
 21
128.5
 31
0.0
  0
LINE
  5
F7C
330
1F
100
AcDbEntity
  8
0
100
AcDbLine
 10
270.6791352886303
 20
128.5
 30
0.0
 11
276.6791352886303
 21
128.5
 31
0.0
  0
LINE
  5
F7D
330
1F
100
AcDbEntity
  8
0
100
AcDbLine
 10
276.6791352886303
 20
128.5
 30
0.0
 11
282.5722976281022
 21
128.5
 31
0.0
  0
LINE
  5
F7E
330
1F
100
AcDbEntity
  8
0
100
AcDbLine
 10
262.8041352886303
 20
128.5
 30
0.0
 11
267.0541352886303
 21
128.5
 31
0.0
  0
LINE
  5
F7F
330
1F
100
AcDbEntity
  8
0
100
AcDbLine
 10
262.8041352886303
 20
163.5
 30
0.0
 11
276.6791352886303
 21
163.5
 31
0.0
  0
LINE
  5
F80
330
1F
100
AcDbEntity
  8
0
100
AcDbLine
 10
265.3041352886303
 20
182.0
 30
0.0
 11
229.3041352886303
 21
182.0
 31
0.0
  0
LWPOLYLINE
  5
F81
330
1F
100
AcDbEntity
  8
0
100
AcDbPolyline
 90
        4
 70
     0
 43
0.0
 10
265.3041352886303
 20
182.0
 10
281.3041352886303
 20
182.0
 10
281.3041352886303
 20
110.0
 10
265.3041352886303
 20
110.0
  0
LINE
  5
F82
330
1F
100
AcDbEntity
  8
0
100
AcDbLine
 10
229.3041352886303
 20
110.0
 30
0.0
 11
265.3041352886303
 21
110.0
 31
0.0
  0
LINE
  5
F83
330
1F
100
AcDbEntity
  8
0
100
AcDbLine
 10
229.3041352886303
 20
182.0
 30
0.0
 11
229.3041352886303
 21
110.0
 31
0.0
  0
LINE
  5
F87
330
1F
100
AcDbEntity
  8
0
100
AcDbLine
 10
247.8041352886303
 20
163.5
 30
0.0
 11
247.8041352886303
 21
163.5
 31
0.0
  0
LINE
  5
F8D
330
1F
100
AcDbEntity
  8
0
100
AcDbLine
 10
262.8041352886303
 20
167.75
 30
0.0
 11
247.8041352886303
 21
167.75
 31
0.0
  0
LINE
  5
F8E
330
1F
100
AcDbEntity
  8
0
100
AcDbLine
 10
262.8041352886303
 20
167.75
 30
0.0
 11
276.6791352886303
 21
167.75
 31
0.0
  0
LINE
  5
F8F
330
1F
100
AcDbEntity
  8
0
100
AcDbLine
 10
276.6791352886303
 20
167.75
 30
0.0
 11
281.3041352886303
 21
167.75
 31
0.0
  0
LINE
  5
F90
330
1F
100
AcDbEntity
  8
0
100
AcDbLine
 10
270.6791352886303
 20
124.25
 30
0.0
 11
276.6791352886303
 21
124.25
 31
0.0
  0
LINE
  5
F91
330
1F
100
AcDbEntity
  8
0
100
AcDbLine
 10
267.0541352886303
 20
124.25
 30
0.0
 11
270.6791352886303
 21
124.25
 31
0.0
  0
LINE
  5
F92
330
1F
100
AcDbEntity
  8
0
100
AcDbLine
 10
247.8041352886303
 20
124.25
 30
0.0
 11
262.8041352886303
 21
124.25
 31
0.0
  0
LINE
  5
F93
330
1F
100
AcDbEntity
  8
0
100
AcDbLine
 10
262.8041352886303
 20
124.25
 30
0.0
 11
267.0541352886303
 21
124.25
 31
0.0
  0
LINE
  5
F94
330
1F
100
AcDbEntity
  8
0
100
AcDbLine
 10
276.6791352886303
 20
124.25
 30
0.0
 11
281.3041352886303
 21
124.25
 31
0.0
  0
LINE
  5
F95
330
1F
100
AcDbEntity
  8
0
100
AcDbLine
 10
247.8041352886303
 20
120.625
 30
0.0
 11
262.8041352886303
 21
120.625
 31
0.0
  0
LINE
  5
F96
330
1F
100
AcDbEntity
  8
0
100
AcDbLine
 10
262.8041352886303
 20
120.625
 30
0.0
 11
267.0541352886303
 21
120.625
 31
0.0
  0
LINE
  5
F97
330
1F
100
AcDbEntity
  8
0
100
AcDbLine
 10
270.6791352886303
 20
120.625
 30
0.0
 11
276.6791352886303
 21
120.625
 31
0.0
  0
LINE
  5
F98
330
1F
100
AcDbEntity
  8
0
100
AcDbLine
 10
276.6791352886303
 20
120.625
 30
0.0
 11
281.3041352886303
 21
120.625
 31
0.0
  0
LINE
  5
F99
330
1F
100
AcDbEntity
  8
0
100
AcDbLine
 10
267.0541352886303
 20
120.625
 30
0.0
 11
270.6791352886303
 21
120.625
 31
0.0
  0
LINE
  5
F9B
330
1F
100
AcDbEntity
  8
0
100
AcDbLine
 10
262.8041352886303
 20
171.375
 30
0.0
 11
247.8041352886303
 21
171.375
 31
0.0
  0
LINE
  5
F9C
330
1F
100
AcDbEntity
  8
0
100
AcDbLine
 10
262.8041352886303
 20
171.375
 30
0.0
 11
276.6791352886303
 21
171.375
 31
0.0
  0
LINE
  5
F9D
330
1F
100
AcDbEntity
  8
0
100
AcDbLine
 10
262.8041352886303
 20
171.375
 30
0.0
 11
276.6791352886303
 21
171.375
 31
0.0
  0
LINE
  5
F9E
330
1F
100
AcDbEntity
  8
0
100
AcDbLine
 10
276.6791352886303
 20
171.375
 30
0.0
 11
281.3041352886303
 21
171.375
 31
0.0
  0
LINE
  5
F9F
330
1F
100
AcDbEntity
  8
0
100
AcDbLine
 10
262.8041352886303
 20
177.375
 30
0.0
 11
276.6791352886303
 21
177.375
 31
0.0
  0
LINE
  5
FA0
330
1F
100
AcDbEntity
  8
0
100
AcDbLine
 10
262.8041352886303
 20
177.375
 30
0.0
 11
247.8041352886303
 21
177.375
 31
0.0
  0
LINE
  5
FA1
330
1F
100
AcDbEntity
  8
0
100
AcDbLine
 10
276.6791352886303
 20
177.375
 30
0.0
 11
281.3041352886303
 21
177.375
 31
0.0
  0
LINE
  5
FA2
330
1F
100
AcDbEntity
  8
0
100
AcDbLine
 10
247.8041352886303
 20
114.625
 30
0.0
 11
262.8041352886303
 21
114.625
 31
0.0
  0
LINE
  5
FA3
330
1F
100
AcDbEntity
  8
0
100
AcDbLine
 10
270.6791352886303
 20
114.625
 30
0.0
 11
276.6791352886303
 21
114.625
 31
0.0
  0
LINE
  5
FA4
330
1F
100
AcDbEntity
  8
0
100
AcDbLine
 10
276.6791352886303
 20
114.625
 30
0.0
 11
281.3041352886303
 21
114.625
 31
0.0
  0
LINE
  5
FA5
330
1F
100
AcDbEntity
  8
0
100
AcDbLine
 10
267.0541352886303
 20
114.625
 30
0.0
 11
270.6791352886303
 21
114.625
 31
0.0
  0
LINE
  5
FA6
330
1F
100
AcDbEntity
  8
0
100
AcDbLine
 10
262.8041352886303
 20
114.625
 30
0.0
 11
267.0541352886303
 21
114.625
 31
0.0
  0
LINE
  5
FA7
330
1F
100
AcDbEntity
  8
0
100
AcDbLine
 10
262.8041352886303
 20
182.0
 30
0.0
 11
276.6791352886303
 21
182.0
 31
0.0
  0
LINE
  5
FA8
330
1F
100
AcDbEntity
  8
0
100
AcDbLine
 10
262.8041352886303
 20
182.0
 30
0.0
 11
247.8041352886303
 21
182.0
 31
0.0
  0
LINE
  5
FA9
330
1F
100
AcDbEntity
  8
0
100
AcDbLine
 10
276.6791352886303
 20
182.0
 30
0.0
 11
281.3041352886303
 21
182.0
 31
0.0
  0
LINE
  5
FAA
330
1F
100
AcDbEntity
  8
0
100
AcDbLine
 10
247.8041352886303
 20
110.0
 30
0.0
 11
262.8041352886303
 21
110.0
 31
0.0
  0
LINE
  5
FAC
330
1F
100
AcDbEntity
  8
0
100
AcDbLine
 10
243.9291352886303
 20
163.5
 30
0.0
 11
243.9291352886303
 21
128.5
 31
0.0
  0
LINE
  5
FAE
330
1F
100
AcDbEntity
  8
0
100
AcDbLine
 10
239.9291352886303
 20
163.5
 30
0.0
 11
239.9291352886303
 21
128.5
 31
0.0
  0
LINE
  5
FAF
330
1F
100
AcDbEntity
  8
0
100
AcDbLine
 10
234.4291352886303
 20
163.5
 30
0.0
 11
234.4291352886303
 21
128.5
 31
0.0
  0
LINE
  5
FB1
330
1F
100
AcDbEntity
  8
0
100
AcDbLine
 10
234.4291352886303
 20
163.5
 30
0.0
 11
234.4291352886303
 21
177.375
 31
0.0
  0
LINE
  5
FB2
330
1F
100
AcDbEntity
  8
0
100
AcDbLine
 10
239.9291352886303
 20
163.5
 30
0.0
 11
239.9291352886304
 21
171.375
 31
0.0
  0
LINE
  5
FB3
330
1F
100
AcDbEntity
  8
0
100
AcDbLine
 10
243.9291352886303
 20
163.5
 30
0.0
 11
243.9291352886303
 21
167.75
 31
0.0
  0
LINE
  5
FB4
330
1F
100
AcDbEntity
  8
0
100
AcDbLine
 10
234.4291352886303
 20
128.5
 30
0.0
 11
234.4291352886303
 21
114.625
 31
0.0
  0
LINE
  5
FB5
330
1F
100
AcDbEntity
  8
0
100
AcDbLine
 10
239.9291352886303
 20
128.5
 30
0.0
 11
239.9291352886303
 21
120.625
 31
0.0
  0
LINE
  5
FB6
330
1F
100
AcDbEntity
  8
0
100
AcDbLine
 10
243.9291352886303
 20
128.5
 30
0.0
 11
243.9291352886303
 21
124.25
 31
0.0
  0
LINE
  5
FB7
330
1F
100
AcDbEntity
  8
0
100
AcDbLine
 10
247.8041352886303
 20
177.375
 30
0.0
 11
234.4291352886303
 21
177.375
 31
0.0
  0
LINE
  5
FB8
330
1F
100
AcDbEntity
  8
0
100
AcDbLine
 10
247.8041352886303
 20
114.625
 30
0.0
 11
234.4291352886303
 21
114.625
 31
0.0
  0
LINE
  5
FB9
330
1F
100
AcDbEntity
  8
0
100
AcDbLine
 10
247.8041352886303
 20
171.375
 30
0.0
 11
239.9291352886303
 21
171.375
 31
0.0
  0
LINE
  5
FBA
330
1F
100
AcDbEntity
  8
0
100
AcDbLine
 10
247.8041352886303
 20
120.625
 30
0.0
 11
239.9291352886303
 21
120.625
 31
0.0
  0
LINE
  5
FBB
330
1F
100
AcDbEntity
  8
0
100
AcDbLine
 10
247.8041352886303
 20
124.25
 30
0.0
 11
243.9291352886303
 21
124.25
 31
0.0
  0
LINE
  5
FBC
330
1F
100
AcDbEntity
  8
0
100
AcDbLine
 10
247.8041352886303
 20
167.75
 30
0.0
 11
243.9291352886303
 21
167.75
 31
0.0
  0
DIMENSION
  5
FC8
330
1F
100
AcDbEntity
  8
0
100
AcDbDimension
  2
*D49
 10
199.1692671772207
 20
110.0
 30
0.0
 11
199.1692671772207
 21
146.0000000000001
 31
0.0
 70
    32
 71
     5
 42
72.0
 73
     0
 74
     0
 75
     0
  3
Jennifer
100
AcDbAlignedDimension
 13
229.3041352886303
 23
182.0
 33
0.0
 14
229.3041352886303
 24
110.0
 34
0.0
 50
90.0
100
AcDbRotatedDimension
  0
DIMENSION
  5
FD6
330
1F
100
AcDbEntity
  8
0
100
AcDbDimension
  2
*D50
 10
286.1854253809897
 20
182.0
 30
0.0
 11
302.0743074636849
 21
192.56
 31
0.0
 70
    32
 71
     5
 42
4.625
 73
     0
 74
     0
 75
     0
  3
Jennifer
100
AcDbAlignedDimension
 13
281.3041352886303
 23
177.375
 33
0.0
 14
281.3041352886303
 24
182.0
 34
0.0
 50
90.0
100
AcDbRotatedDimension
  0
DIMENSION
  5
FE5
330
1F
100
AcDbEntity
  8
0
100
AcDbDimension
  2
*D51
 10
304.8317464900038
 20
177.375
 30
0.0
 11
318.8932472557005
 21
187.935
 31
0.0
 70
    32
 71
     5
 42
6.0
 73
     0
 74
     0
 75
     0
  3
Jennifer
100
AcDbAlignedDimension
 13
281.3041352886303
 23
171.375
 33
0.0
 14
281.3041352886303
 24
177.375
 34
0.0
 50
90.0
100
AcDbRotatedDimension
  0
DIMENSION
  5
FF4
330
1F
100
AcDbEntity
  8
0
100
AcDbDimension
  2
*D52
 10
310.6032280782047
 20
171.375
 30
0.0
 11
326.4921101608999
 21
181.935
 31
0.0
 70
    32
 71
     5
 42
3.625
 73
     0
 74
     0
 75
     0
  3
Jennifer
100
AcDbAlignedDimension
 13
282.5722976281022
 23
167.75
 33
0.0
 14
281.3041352886303
 24
171.375
 34
0.0
 50
90.0
100
AcDbRotatedDimension
  0
DIMENSION
  5
1003
330
1F
100
AcDbEntity
  8
0
100
AcDbDimension
  2
*D53
 10
328.8055886628399
 20
167.75
 30
0.0
 11
344.6499990763161
 21
178.31
 31
0.0
 70
    32
 71
     5
 42
4.25
 73
     0
 74
     0
 75
     0
  3
Jennifer
100
AcDbAlignedDimension
 13
281.3041352886303
 23
163.5
 33
0.0
 14
281.3041352886303
 24
167.75
 34
0.0
 50
90.0
100
AcDbRotatedDimension
  0
DIMENSION
  5
1020
330
1F
100
AcDbEntity
  8
0
100
AcDbDimension
  2
*D55
 10
234.4291352886303
 20
134.0534432664299
 30
0.0
 11
213.4866544310499
 21
134.0534432664299
 31
0.0
 70
    32
 71
     5
 42
5.5
 73
     0
 74
     0
 75
     0
  3
Jennifer
100
AcDbAlignedDimension
 13
239.9291352886303
 23
128.5
 33
0.0
 14
234.4291352886303
 24
128.5
 34
0.0
100
AcDbRotatedDimension
  0
DIMENSION
  5
102E
330
1F
100
AcDbEntity
  8
0
100
AcDbDimension
  2
*D56
 10
239.9291352886303
 20
146.0000000000001
 30
0.0
 11
220.5189055795951
 21
146.0000000000001
 31
0.0
 70
    32
 71
     5
 42
4.0
 73
     0
 74
     0
 75
     0
  3
Jennifer
100
AcDbAlignedDimension
 13
243.9291352886303
 23
146.0
 33
0.0
 14
239.9291352886303
 24
146.0
 34
0.0
100
AcDbRotatedDimension
  0
DIMENSION
  5
1044
330
1F
100
AcDbEntity
  8
0
100
AcDbDimension
  2
*D57
 10
243.9291352886303
 20
162.4132898084949
 30
0.0
 11
222.760253205935
 21
162.4132898084949
 31
0.0
 70
    32
 71
     5
 42
3.875
 73
     0
 74
     0
 75
     0
  3
Jennifer
100
AcDbAlignedDimension
 13
247.8041352886303
 23
163.5
 33
0.0
 14
243.9291352886303
 24
163.5
 34
0.0
100
AcDbRotatedDimension
  0
DIMENSION
  5
1052
330
1F
100
AcDbEntity
  8
0
100
AcDbDimension
  2
*D58
 10
229.8041352886303
 20
121.5625
 30
0.0
 11
208.6352532059351
 21
121.5625
 31
0.0
 70
    32
 71
     5
 42
4.625
 73
     0
 74
     0
 75
     0
  3
Jennifer
100
AcDbAlignedDimension
 13
234.4291352886303
 23
114.625
 33
0.0
 14
229.8041352886303
 24
114.625
 34
0.0
100
AcDbRotatedDimension
  0
LINE
  5
1061
330
1F
100
AcDbEntity
  8
0
100
AcDbLine
 10
517.4291352886314
 20
187.7500000000004
 30
0.0
 11
517.4291352886314
 21
143.1250000000004
 31
0.0
  0
LINE
  5
1062
330
1F
100
AcDbEntity
  8
0
100
AcDbLine
 10
517.4291352886314
 20
143.1250000000004
 30
0.0
 11
552.6791352886313
 21
143.1250000000004
 31
0.0
  0
LINE
  5
1066
330
1F
100
AcDbEntity
  8
0
100
AcDbLine
 10
560.4291352886308
 20
82.12500000000043
 30
0.0
 11
560.4291352886312
 21
148.2500000000002
 31
0.0
  0
LINE
  5
1067
330
1F
100
AcDbEntity
  8
0
100
AcDbLine
 10
517.4291352886314
 20
133.1250000000004
 30
0.0
 11
552.6791352886312
 21
133.1250000000004
 31
0.0
  0
LINE
  5
1068
330
1F
100
AcDbEntity
  8
0
100
AcDbLine
 10
517.4291352886314
 20
123.1250000000004
 30
0.0
 11
552.6791352886312
 21
123.1250000000004
 31
0.0
  0
LINE
  5
1069
330
1F
100
AcDbEntity
  8
0
100
AcDbLine
 10
517.4291352886314
 20
113.1250000000004
 30
0.0
 11
552.6791352886311
 21
113.1250000000004
 31
0.0
  0
LINE
  5
106A
330
1F
100
AcDbEntity
  8
0
100
AcDbLine
 10
517.4291352886314
 20
103.1250000000004
 30
0.0
 11
544.6774626434258
 21
103.1250000000004
 31
0.0
  0
LINE
  5
106B
330
1F
100
AcDbEntity
  8
0
100
AcDbLine
 10
517.4291352886314
 20
93.12500000000043
 30
0.0
 11
528.6741173530153
 21
93.12500000000043
 31
0.0
  0
LINE
  5
106D
330
1F
100
AcDbEntity
  8
0
100
AcDbLine
 10
562.4291352886312
 20
93.12500000000044
 30
0.0
 11
597.6791352886303
 21
93.12500000000043
 31
0.0
  0
LINE
  5
106E
330
1F
100
AcDbEntity
  8
0
100
AcDbLine
 10
562.4291352886313
 20
103.1250000000004
 30
0.0
 11
597.6791352886303
 21
103.1250000000004
 31
0.0
  0
LINE
  5
106F
330
1F
100
AcDbEntity
  8
0
100
AcDbLine
 10
562.4291352886313
 20
113.1250000000004
 30
0.0
 11
597.6791352886303
 21
113.1250000000004
 31
0.0
  0
LINE
  5
1070
330
1F
100
AcDbEntity
  8
0
100
AcDbLine
 10
562.4291352886314
 20
123.1250000000004
 30
0.0
 11
597.6791352886303
 21
123.1250000000004
 31
0.0
  0
LINE
  5
1071
330
1F
100
AcDbEntity
  8
0
100
AcDbLine
 10
562.4291352886314
 20
133.1250000000004
 30
0.0
 11
597.6791352886303
 21
133.1250000000004
 31
0.0
  0
LINE
  5
1072
330
1F
100
AcDbEntity
  8
0
100
AcDbLine
 10
562.4291352886315
 20
143.1250000000004
 30
0.0
 11
597.6791352886303
 21
143.1250000000004
 31
0.0
  0
LINE
  5
1074
330
1F
100
AcDbEntity
  8
0
100
AcDbLine
 10
562.4291352886312
 20
84.12500000000041
 30
0.0
 11
562.4291352886314
 21
150.2500000000002
 31
0.0
  0
LINE
  5
107F
330
1F
100
AcDbEntity
  8
0
100
AcDbLine
 10
562.4291352886314
 20
150.2500000000002
 30
0.0
 11
552.6791352886313
 21
150.2500000000002
 31
0.0
  0
LINE
  5
1080
330
1F
100
AcDbEntity
  8
0
100
AcDbLine
 10
560.4291352886313
 20
148.2500000000002
 30
0.0
 11
554.6791352886313
 21
148.2500000000002
 31
0.0
  0
LINE
  5
1081
330
1F
100
AcDbEntity
  8
0
100
AcDbLine
 10
557.5541352886314
 20
150.2500000000002
 30
0.0
 11
557.5541352886316
 21
187.7500000000002
 31
0.0
  0
LINE
  5
1087
330
1F
100
AcDbEntity
  8
0
100
AcDbLine
 10
512.6791352886302
 20
175.4632527255631
 30
0.0
 11
512.6791352886302
 21
163.7500000000006
 31
0.0
  0
LINE
  5
1088
330
1F
100
AcDbEntity
  8
0
100
AcDbLine
 10
517.4291352886314
 20
143.1250000000004
 30
0.0
 11
517.4291352886314
 21
82.12500000000045
 31
0.0
  0
LINE
  5
108A
330
1F
100
AcDbEntity
  8
0
100
AcDbLine
 10
512.6791352886303
 20
159.0000000000007
 30
0.0
 11
512.6791352886303
 21
82.12500000000045
 31
0.0
  0
LINE
  5
108B
330
1F
100
AcDbEntity
  8
0
100
AcDbLine
 10
552.6791352886312
 20
113.1250000000004
 30
0.0
 11
552.6791352886314
 21
150.2500000000002
 31
0.0
  0
LINE
  5
108C
330
1F
100
AcDbEntity
  8
0
100
AcDbLine
 10
552.6791352886311
 20
113.1250000000004
 30
0.0
 11
552.6791352886311
 21
108.1250000000005
 31
0.0
  0
LINE
  5
1092
330
1F
100
AcDbEntity
  8
0
100
AcDbLine
 10
552.6791352886311
 20
108.1250000000004
 30
0.0
 11
517.4291352886314
 21
86.09835534519685
 31
0.0
  0
LINE
  5
1093
330
1F
100
AcDbEntity
  8
0
100
AcDbLine
 10
552.6791352886311
 20
108.1250000000004
 30
0.0
 11
556.0721852546367
 21
110.2452129332543
 31
0.0
  0
LINE
  5
10B3
330
1F
100
AcDbEntity
  8
0
100
AcDbLine
 10
517.4291352886314
 20
93.12500000000043
 30
0.0
 11
517.4291352886314
 21
84.12500000000043
 31
0.0
  0
LINE
  5
10B6
330
1F
100
AcDbEntity
  8
0
100
AcDbLine
 10
554.679135288631
 20
109.3747387038191
 30
0.0
 11
554.6791352886313
 21
148.2500000000002
 31
0.0
  0
LINE
  5
10B7
330
1F
100
AcDbEntity
  8
0
100
AcDbLine
 10
517.4291352886314
 20
82.12500000000045
 30
0.0
 11
512.6791352886302
 21
82.12500000000045
 31
0.0
  0
LINE
  5
10B9
330
1F
100
AcDbEntity
  8
0
100
AcDbLine
 10
560.4291352886307
 20
82.12500000000041
 30
0.0
 11
562.4291352886312
 21
82.12500000000041
 31
0.0
  0
LINE
  5
10BA
330
1F
100
AcDbEntity
  8
0
100
AcDbLine
 10
562.4291352886312
 20
84.12500000000041
 30
0.0
 11
562.4291352886312
 21
82.12500000000041
 31
0.0
  0
LINE
  5
10BB
330
1F
100
AcDbEntity
  8
0
100
AcDbLine
 10
554.8692126508322
 20
150.2500000000002
 30
0.0
 11
530.0661680033272
 21
187.7500000000003
 31
0.0
  0
LINE
  5
10BC
330
1F
100
AcDbEntity
  8
0
100
AcDbLine
 10
552.6791352886314
 20
148.0630462103491
 30
0.0
 11
517.4291352886313
 21
173.3750000000005
 31
0.0
  0
LINE
  5
10BD
330
1F
100
AcDbEntity
  8
0
100
AcDbLine
 10
562.4291352886315
 20
148.0630462103492
 30
0.0
 11
597.6791352886308
 21
173.3750000000018
 31
0.0
  0
LINE
  5
10BE
330
1F
100
AcDbEntity
  8
0
100
AcDbLine
 10
560.2390579264306
 20
150.2500000000003
 30
0.0
 11
585.0421025739345
 21
187.7500000000012
 31
0.0
  0
LINE
  5
10BF
330
1F
100
AcDbEntity
  8
0
100
AcDbLine
 10
557.5541352886314
 20
150.2500000000002
 30
0.0
 11
557.55413528863
 21
187.7500000000002
 31
0.0
  0
LEADER
  5
10C9
330
1F
100
AcDbEntity
  8
0
100
AcDbLeader
  3
Jennifer
 76
     3
 10
534.2406769242016
 20
100.0750445596182
 30
0.0
 10
534.2406769242016
 20
167.6660151832739
 30
0.0
 10
580.0541352886307
 20
166.8979353113205
 30
0.0
1001
ACAD
1000
DSTYLE
1002
{
1070
   147
1040
0.0625
1070
    77
1070
     0
1002
}
  0
LINE
  5
10CA
330
1F
100
AcDbEntity
  8
0
100
AcDbLine
 10
580.0541352886307
 20
166.8979353113205
 30
0.0
 11
580.0541352886307
 21
88.5538565860984
 31
0.0
  0
TEXT
  5
10CB
330
1F
100
AcDbEntity
  8
0
100
AcDbText
 10
580.0541352886307
 20
151.5363505044793
 30
0.0
 40
6.0
  1
STAIR UP
 50
270.0
100
AcDbText
  0
DIMENSION
  5
10DB
330
1F
100
AcDbEntity
  8
0
100
AcDbDimension
  2
*D60
 10
615.8109305168682
 20
150.2500000000001
 30
0.0
 11
615.8109305168682
 21
169.0000000000002
 31
0.0
 70
    32
 71
     5
 42
37.49999999999986
 73
     0
 74
     0
 75
     0
  3
Jennifer
100
AcDbAlignedDimension
 13
597.6791352886303
 23
187.75
 33
0.0
 14
562.4291352886314
 24
150.2500000000002
 34
0.0
 50
90.0
100
AcDbRotatedDimension
  0
DIMENSION
  5
10E9
330
1F
100
AcDbEntity
  8
0
100
AcDbDimension
  2
*D61
 10
637.3577870954405
 20
143.1250000000004
 30
0.0
 11
637.3577870954405
 21
165.4375000000003
 31
0.0
 70
    32
 71
     5
 42
44.62499999999957
 73
     0
 74
     0
 75
     0
  3
Jennifer
100
AcDbAlignedDimension
 13
597.6791352886303
 23
187.75
 33
0.0
 14
597.6791352886303
 24
143.1250000000004
 34
0.0
 50
90.0
100
AcDbRotatedDimension
  0
DIMENSION
  5
10F7
330
1F
100
AcDbEntity
  8
0
100
AcDbDimension
  2
*D62
 10
637.3577870954405
 20
133.1250000000004
 30
0.0
 11
621.5376339560837
 21
122.5650000000005
 31
0.0
 70
    32
 71
     5
 42
10.0
 73
     0
 74
     0
 75
     0
  3
Jennifer
100
AcDbAlignedDimension
 13
597.6791352886303
 23
143.1250000000004
 33
0.0
 14
597.6791352886303
 24
133.1250000000004
 34
0.0
 50
90.0
100
AcDbRotatedDimension
  0
DIMENSION
  5
1106
330
1F
100
AcDbEntity
  8
0
100
AcDbDimension
  2
*D63
 10
560.4291352886311
 20
73.192274305703
 30
0.0
 11
581.5171597909282
 21
73.192274305703
 31
0.0
 70
    32
 71
     5
 42
5.749999999999886
 73
     0
 74
     0
 75
     0
  3
Jennifer
100
AcDbAlignedDimension
 13
554.6791352886312
 23
128.8123693519096
 33
0.0
 14
560.4291352886311
 24
128.8123693519096
 34
0.0
100
AcDbRotatedDimension
  0
DIMENSION
  5
113E
330
1F
100
AcDbEntity
  8
0
100
AcDbDimension
  2
*D67
 10
559.9291352886314
 20
201.4614992318789
 30
0.0
 11
538.6791352886314
 21
201.4614992318789
 31
0.0
 70
    32
 71
     5
 42
42.5
 73
     0
 74
     0
 75
     0
  3
Jennifer
100
AcDbAlignedDimension
 13
517.4291352886314
 23
187.7500000000004
 33
0.0
 14
559.9291352886314
 24
187.7500000000004
 34
0.0
100
AcDbRotatedDimension
  0
DIMENSION
  5
114C
330
1F
100
AcDbEntity
  8
0
100
AcDbDimension
  2
*D68
 10
602.4291352886303
 20
201.4614992318789
 30
0.0
 11
581.1791352886308
 21
201.4614992318789
 31
0.0
 70
    32
 71
     5
 42
42.49999999999886
 73
     0
 74
     0
 75
     0
  3
Jennifer
100
AcDbAlignedDimension
 13
559.9291352886314
 23
187.7500000000004
 33
0.0
 14
602.4291352886303
 24
201.4614992318789
 34
0.0
100
AcDbRotatedDimension
1001
ACAD
1000
DSTYLE
1002
{
1070
   279
1070
     1
1002
}
  0
DIMENSION
  5
115C
330
1F
100
AcDbEntity
  8
0
100
AcDbDimension
  2
*D69
 10
698.0541352886303
 20
-176.5124865289267
 30
0.0
 11
746.0541352886303
 21
-176.5124865289267
 31
0.0
 70
    32
 71
     5
 42
96.0
 73
     0
 74
     0
 75
     0
  3
Jennifer
100
AcDbAlignedDimension
 13
794.0541352886303
 23
-102.0
 33
0.0
 14
698.0541352886303
 24
-102.0
 34
0.0
100
AcDbRotatedDimension
  0
DIMENSION
  5
116A
330
1F
100
AcDbEntity
  8
0
100
AcDbDimension
  2
*D70
 10
602.0541352886303
 20
-176.5124865289267
 30
0.0
 11
650.0541352886303
 21
-176.5124865289267
 31
0.0
 70
    32
 71
     5
 42
96.0
 73
     0
 74
     0
 75
     0
  3
Jennifer
100
AcDbAlignedDimension
 13
698.0541352886303
 23
-102.0
 33
0.0
 14
602.0541352886303
 24
-102.0
 34
0.0
100
AcDbRotatedDimension
1001
ACAD
1000
DSTYLE
1002
{
1070
   279
1070
     1
1002
}
  0
DIMENSION
  5
1178
330
1F
100
AcDbEntity
  8
0
100
AcDbDimension
  2
*D71
 10
566.0541352886303
 20
-176.5124865289267
 30
0.0
 11
584.0541352886303
 21
-176.5124865289267
 31
0.0
 70
    32
 71
     5
 42
36.0
 73
     0
 74
     0
 75
     0
  3
Jennifer
100
AcDbAlignedDimension
 13
602.0541352886303
 23
-102.0
 33
0.0
 14
566.0541352886303
 24
-90.0
 34
0.0
100
AcDbRotatedDimension
1001
ACAD
1000
DSTYLE
1002
{
1070
   279
1070
     1
1002
}
  0
DIMENSION
  5
1186
330
1F
100
AcDbEntity
  8
0
100
AcDbDimension
  2
*D72
 10
494.0541352886303
 20
-176.5124865289267
 30
0.0
 11
530.0541352886303
 21
-176.5124865289267
 31
0.0
 70
    32
 71
     5
 42
72.0
 73
     0
 74
     0
 75
     0
  3
Jennifer
100
AcDbAlignedDimension
 13
566.0541352886303
 23
-90.0
 33
0.0
 14
494.0541352886303
 24
-90.0
 34
0.0
100
AcDbRotatedDimension
1001
ACAD
1000
DSTYLE
1002
{
1070
   279
1070
     1
1002
}
  0
DIMENSION
  5
1194
330
1F
100
AcDbEntity
  8
0
100
AcDbDimension
  2
*D73
 10
458.0541352886303
 20
-176.5124865289267
 30
0.0
 11
476.0541352886303
 21
-176.5124865289267
 31
0.0
 70
    32
 71
     5
 42
36.0
 73
     0
 74
     0
 75
     0
  3
Jennifer
100
AcDbAlignedDimension
 13
494.0541352886303
 23
-90.0
 33
0.0
 14
458.0541352886303
 24
-90.0
 34
0.0
100
AcDbRotatedDimension
1001
ACAD
1000
DSTYLE
1002
{
1070
   279
1070
     1
1002
}
  0
DIMENSION
  5
11A2
330
1F
100
AcDbEntity
  8
0
100
AcDbDimension
  2
*D74
 10
362.0541352886303
 20
-176.5124865289267
 30
0.0
 11
410.0541352886303
 21
-176.5124865289267
 31
0.0
 70
    32
 71
     5
 42
96.0
 73
     0
 74
     0
 75
     0
  3
Jennifer
100
AcDbAlignedDimension
 13
458.0541352886303
 23
-90.0
 33
0.0
 14
362.0541352886303
 24
-102.0
 34
0.0
100
AcDbRotatedDimension
1001
ACAD
1000
DSTYLE
1002
{
1070
   279
1070
     1
1002
}
  0
DIMENSION
  5
11B0
330
1F
100
AcDbEntity
  8
0
100
AcDbDimension
  2
*D75
 10
266.0541352886303
 20
-176.5124865289267
 30
0.0
 11
314.0541352886303
 21
-176.5124865289267
 31
0.0
 70
    32
 71
     5
 42
96.0
 73
     0
 74
     0
 75
     0
  3
Jennifer
100
AcDbAlignedDimension
 13
362.0541352886303
 23
-102.0
 33
0.0
 14
266.0541352886303
 24
-102.0
 34
0.0
100
AcDbRotatedDimension
1001
ACAD
1000
DSTYLE
1002
{
1070
   279
1070
     1
1002
}
  0
DIMENSION
  5
11BE
330
1F
100
AcDbEntity
  8
0
100
AcDbDimension
  2
*D76
 10
170.0541352886303
 20
-176.5124865289267
 30
0.0
 11
218.0541352886303
 21
-176.5124865289267
 31
0.0
 70
    32
 71
     5
 42
96.0
 73
     0
 74
     0
 75
     0
  3
Jennifer
100
AcDbAlignedDimension
 13
266.0541352886303
 23
-102.0
 33
0.0
 14
170.0541352886303
 24
-102.0
 34
0.0
100
AcDbRotatedDimension
1001
ACAD
1000
DSTYLE
1002
{
1070
   279
1070
     1
1002
}
  0
DIMENSION
  5
1299
330
1F
100
AcDbEntity
  8
0
100
AcDbDimension
  2
*D80
 10
521.5081423644224
 20
-132.0
 30
0.0
 11
521.5081423644224
 21
-110.9999999999999
 31
0.0
 70
    32
 71
     5
 42
42.0
 73
     0
 74
     0
 75
     0
  3
Jennifer
100
AcDbAlignedDimension
 13
496.0541352886303
 23
-90.0
 33
0.0
 14
521.5081423644224
 24
-132.0
 34
0.0
 50
90.0
100
AcDbRotatedDimension
1001
ACAD
1000
DSTYLE
1002
{
1070
   279
1070
     1
1002
}
  0
LWPOLYLINE
  5
12A7
330
1F
100
AcDbEntity
  8
0
100
AcDbPolyline
 90
        4
 70
     1
 43
0.0
 10
164.0541352886303
 20
-6.0
 10
176.0541352886303
 20
-6.0
 10
176.0541352886303
 20
6.0
 10
164.0541352886303
 20
6.0
  0
LWPOLYLINE
  5
12A8
330
1F
100
AcDbEntity
  8
0
100
AcDbPolyline
 90
        4
 70
     1
 43
0.0
 10
164.0541352886303
 20
90.0
 10
176.0541352886303
 20
90.0
 10
176.0541352886303
 20
102.0
 10
164.0541352886303
 20
102.0
  0
LWPOLYLINE
  5
12A9
330
1F
100
AcDbEntity
  8
0
100
AcDbPolyline
 90
        4
 70
     1
 43
0.0
 10
164.0541352886303
 20
186.0
 10
176.0541352886303
 20
186.0
 10
176.0541352886303
 20
198.0
 10
164.0541352886303
 20
198.0
  0
LWPOLYLINE
  5
12AA
330
1F
100
AcDbEntity
  8
0
100
AcDbPolyline
 90
        4
 70
     1
 43
0.0
 10
164.0541352886303
 20
282.0
 10
176.0541352886303
 20
282.0
 10
176.0541352886303
 20
294.0
 10
164.0541352886303
 20
294.0
  0
LWPOLYLINE
  5
12AB
330
1F
100
AcDbEntity
  8
0
100
AcDbPolyline
 90
        4
 70
     1
 43
0.0
 10
164.0541352886303
 20
378.0
 10
176.0541352886303
 20
378.0
 10
176.0541352886303
 20
390.0
 10
164.0541352886303
 20
390.0
  0
LWPOLYLINE
  5
12AC
330
1F
100
AcDbEntity
  8
0
100
AcDbPolyline
 90
        4
 70
     1
 43
0.0
 10
164.0541352886303
 20
402.0
 10
176.0541352886303
 20
402.0
 10
176.0541352886303
 20
414.0
 10
164.0541352886303
 20
414.0
  0
LWPOLYLINE
  5
12AD
330
1F
100
AcDbEntity
  8
0
100
AcDbPolyline
 90
        4
 70
     1
 43
0.0
 10
164.0541352886303
 20
450.0
 10
176.0541352886303
 20
450.0
 10
176.0541352886303
 20
462.0
 10
164.0541352886303
 20
462.0
  0
LWPOLYLINE
  5
12AE
330
1F
100
AcDbEntity
  8
0
100
AcDbPolyline
 90
        4
 70
     1
 43
0.0
 10
164.0541352886303
 20
474.0
 10
176.0541352886303
 20
474.0
 10
176.0541352886303
 20
486.0
 10
164.0541352886303
 20
486.0
  0
LWPOLYLINE
  5
12AF
330
1F
100
AcDbEntity
  8
0
100
AcDbPolyline
 90
        5
 70
     0
 43
0.0
 10
169.1791352886303
 20
582.0
 10
164.0541352886303
 20
582.0
 10
164.0541352886303
 20
570.0
 10
176.0541352886303
 20
570.0
 10
176.0541352886303
 20
576.0
  0
LINE
  5
12B0
330
1F
100
AcDbEntity
  8
0
100
AcDbLine
 10
164.0541352886303
 20
458.0
 30
0.0
 11
164.0541352886303
 21
474.0
 31
0.0
  0
LINE
  5
12B2
330
1F
100
AcDbEntity
  8
0
100
AcDbLine
 10
164.0541352886303
 20
486.0
 30
0.0
 11
164.0541352886303
 21
570.0
 31
0.0
  0
LINE
  5
12B7
330
1F
100
AcDbEntity
  8
0
100
AcDbLine
 10
164.0541352886303
 20
-90.0
 30
0.0
 11
164.0541352886303
 21
-6.0
 31
0.0
  0
LINE
  5
12B8
330
1F
100
AcDbEntity
  8
0
100
AcDbLine
 10
164.0541352886303
 20
6.0
 30
0.0
 11
164.0541352886303
 21
90.0
 31
0.0
  0
LINE
  5
12B9
330
1F
100
AcDbEntity
  8
0
100
AcDbLine
 10
164.0541352886303
 20
102.0
 30
0.0
 11
164.0541352886303
 21
186.0
 31
0.0
  0
LINE
  5
12BA
330
1F
100
AcDbEntity
  8
0
100
AcDbLine
 10
164.0541352886303
 20
198.0
 30
0.0
 11
164.0541352886303
 21
282.0
 31
0.0
  0
LINE
  5
12BB
330
1F
100
AcDbEntity
  8
0
100
AcDbLine
 10
164.0541352886303
 20
294.0
 30
0.0
 11
164.0541352886303
 21
378.0
 31
0.0
  0
LINE
  5
12BC
330
1F
100
AcDbEntity
  8
0
100
AcDbLine
 10
164.0541352886303
 20
390.0
 30
0.0
 11
164.0541352886303
 21
402.0
 31
0.0
  0
LINE
  5
12BD
330
1F
100
AcDbEntity
  8
0
100
AcDbLine
 10
168.5541352886303
 20
390.0
 30
0.0
 11
168.5541352886303
 21
402.0
 31
0.0
  0
LINE
  5
12BE
330
1F
100
AcDbEntity
  8
0
100
AcDbLine
 10
173.0541352886303
 20
390.0
 30
0.0
 11
173.0541352886303
 21
402.0
 31
0.0
  0
LINE
  5
12BF
330
1F
100
AcDbEntity
  8
0
100
AcDbLine
 10
168.5541352886303
 20
294.0
 30
0.0
 11
168.5541352886303
 21
378.0
 31
0.0
  0
LINE
  5
12C0
330
1F
100
AcDbEntity
  8
0
100
AcDbLine
 10
173.0541352886303
 20
294.0
 30
0.0
 11
173.0541352886303
 21
378.0
 31
0.0
  0
LINE
  5
12C1
330
1F
100
AcDbEntity
  8
0
100
AcDbLine
 10
168.5541352886303
 20
198.0
 30
0.0
 11
168.5541352886303
 21
282.0
 31
0.0
  0
LINE
  5
12C2
330
1F
100
AcDbEntity
  8
0
100
AcDbLine
 10
173.0541352886303
 20
198.0
 30
0.0
 11
173.0541352886303
 21
282.0
 31
0.0
  0
LINE
  5
12C3
330
1F
100
AcDbEntity
  8
0
100
AcDbLine
 10
168.5541352886303
 20
102.0
 30
0.0
 11
168.5541352886303
 21
186.0
 31
0.0
  0
LINE
  5
12C4
330
1F
100
AcDbEntity
  8
0
100
AcDbLine
 10
173.0541352886303
 20
102.0
 30
0.0
 11
173.0541352886303
 21
186.0
 31
0.0
  0
LINE
  5
12C5
330
1F
100
AcDbEntity
  8
0
100
AcDbLine
 10
168.5541352886303
 20
6.0
 30
0.0
 11
168.5541352886303
 21
90.0
 31
0.0
  0
LINE
  5
12C6
330
1F
100
AcDbEntity
  8
0
100
AcDbLine
 10
173.0541352886303
 20
6.0
 30
0.0
 11
173.0541352886303
 21
90.0
 31
0.0
  0
LINE
  5
12C7
330
1F
100
AcDbEntity
  8
0
100
AcDbLine
 10
168.5541352886303
 20
-90.0
 30
0.0
 11
168.5541352886303
 21
-6.0
 31
0.0
  0
LINE
  5
12C8
330
1F
100
AcDbEntity
  8
0
100
AcDbLine
 10
173.0541352886303
 20
-90.0
 30
0.0
 11
173.0541352886303
 21
-6.0
 31
0.0
  0
LINE
  5
12C9
330
1F
100
AcDbEntity
  8
0
100
AcDbLine
 10
168.5541352886303
 20
486.0
 30
0.0
 11
168.5541352886303
 21
570.0
 31
0.0
  0
LINE
  5
12CA
330
1F
100
AcDbEntity
  8
0
100
AcDbLine
 10
173.0541352886303
 20
486.0
 30
0.0
 11
173.0541352886303
 21
570.0
 31
0.0
  0
LINE
  5
12CB
330
1F
100
AcDbEntity
  8
0
100
AcDbLine
 10
168.5541352886303
 20
462.0
 30
0.0
 11
168.5541352886303
 21
474.0
 31
0.0
  0
LINE
  5
12CC
330
1F
100
AcDbEntity
  8
0
100
AcDbLine
 10
173.0541352886303
 20
462.0
 30
0.0
 11
173.0541352886303
 21
474.0
 31
0.0
  0
DIMENSION
  5
12CF
330
1F
100
AcDbEntity
  8
0
100
AcDbDimension
  2
*D81
 10
47.2478089255228
 20
0.0000000000000331
 30
0.0
 11
47.2478089255228
 21
-47.99999999999996
 31
0.0
 70
   160
 71
     5
 42
96.0
 73
     0
 74
     0
 75
     0
  3
Jennifer
100
AcDbAlignedDimension
 13
164.0541352886303
 23
-96.0
 33
0.0
 14
164.0541352886303
 24
0.0
 34
0.0
 50
90.0
100
AcDbRotatedDimension
  0
DIMENSION
  5
12DD
330
1F
100
AcDbEntity
  8
0
100
AcDbDimension
  2
*D82
 10
49.8878089255228
 20
96.00000000000003
 30
0.0
 11
49.88780892552278
 21
48.00000000000004
 31
0.0
 70
    32
 71
     5
 42
96.0
 73
     0
 74
     0
 75
     0
  3
Jennifer
100
AcDbAlignedDimension
 13
164.0541352886303
 23
0.0
 33
0.0
 14
164.0541352886303
 24
96.0
 34
0.0
 50
90.0
100
AcDbRotatedDimension
1001
ACAD
1000
DSTYLE
1002
{
1070
   279
1070
     1
1002
}
  0
DIMENSION
  5
12EB
330
1F
100
AcDbEntity
  8
0
100
AcDbDimension
  2
*D83
 10
49.8878089255228
 20
192.0
 30
0.0
 11
49.88780892552277
 21
144.0
 31
0.0
 70
    32
 71
     5
 42
95.99999999999999
 73
     0
 74
     0
 75
     0
  3
Jennifer
100
AcDbAlignedDimension
 13
164.0541352886303
 23
96.0
 33
0.0
 14
164.0541352886303
 24
192.0
 34
0.0
 50
90.0
100
AcDbRotatedDimension
1001
ACAD
1000
DSTYLE
1002
{
1070
   279
1070
     1
1002
}
  0
DIMENSION
  5
12F9
330
1F
100
AcDbEntity
  8
0
100
AcDbDimension
  2
*D84
 10
49.8878089255228
 20
288.0000000000001
 30
0.0
 11
49.88780892552276
 21
240.0000000000001
 31
0.0
 70
    32
 71
     5
 42
96.00000000000003
 73
     0
 74
     0
 75
     0
  3
Jennifer
100
AcDbAlignedDimension
 13
164.0541352886303
 23
192.0
 33
0.0
 14
164.0541352886303
 24
288.0
 34
0.0
 50
90.0
100
AcDbRotatedDimension
1001
ACAD
1000
DSTYLE
1002
{
1070
   279
1070
     1
1002
}
  0
DIMENSION
  5
1307
330
1F
100
AcDbEntity
  8
0
100
AcDbDimension
  2
*D85
 10
49.8878089255228
 20
384.0000000000001
 30
0.0
 11
49.88780892552274
 21
336.0000000000001
 31
0.0
 70
    32
 71
     5
 42
96.0
 73
     0
 74
     0
 75
     0
  3
Jennifer
100
AcDbAlignedDimension
 13
164.0541352886303
 23
288.0
 33
0.0
 14
164.0541352886303
 24
384.0
 34
0.0
 50
90.0
100
AcDbRotatedDimension
1001
ACAD
1000
DSTYLE
1002
{
1070
   279
1070
     1
1002
}
  0
DIMENSION
  5
1315
330
1F
100
AcDbEntity
  8
0
100
AcDbDimension
  2
*D86
 10
49.8878089255228
 20
408.0000000000001
 30
0.0
 11
49.88780892552273
 21
396.0000000000001
 31
0.0
 70
    32
 71
     5
 42
24.0
 73
     0
 74
     0
 75
     0
  3
Jennifer
100
AcDbAlignedDimension
 13
164.0541352886303
 23
384.0
 33
0.0
 14
164.0541352886303
 24
408.0
 34
0.0
 50
90.0
100
AcDbRotatedDimension
1001
ACAD
1000
DSTYLE
1002
{
1070
   279
1070
     1
1002
}
  0
DIMENSION
  5
1323
330
1F
100
AcDbEntity
  8
0
100
AcDbDimension
  2
*D87
 10
49.8878089255228
 20
456.0000000000001
 30
0.0
 11
49.88780892552273
 21
432.0000000000001
 31
0.0
 70
    32
 71
     5
 42
48.0
 73
     0
 74
     0
 75
     0
  3
Jennifer
100
AcDbAlignedDimension
 13
164.0541352886303
 23
408.0
 33
0.0
 14
164.0541352886303
 24
456.0
 34
0.0
 50
90.0
100
AcDbRotatedDimension
1001
ACAD
1000
DSTYLE
1002
{
1070
   279
1070
     1
1002
}
  0
DIMENSION
  5
1331
330
1F
100
AcDbEntity
  8
0
100
AcDbDimension
  2
*D88
 10
49.8878089255228
 20
480.0000000000001
 30
0.0
 11
49.88780892552273
 21
468.0000000000001
 31
0.0
 70
    32
 71
     5
 42
24.0
 73
     0
 74
     0
 75
     0
  3
Jennifer
100
AcDbAlignedDimension
 13
164.0541352886303
 23
456.0
 33
0.0
 14
164.0541352886303
 24
480.0
 34
0.0
 50
90.0
100
AcDbRotatedDimension
1001
ACAD
1000
DSTYLE
1002
{
1070
   279
1070
     1
1002
}
  0
DIMENSION
  5
133F
330
1F
100
AcDbEntity
  8
0
100
AcDbDimension
  2
*D89
 10
49.8878089255228
 20
576.0
 30
0.0
 11
49.88780892552271
 21
528.0
 31
0.0
 70
    32
 71
     5
 42
95.99999999999994
 73
     0
 74
     0
 75
     0
  3
Jennifer
100
AcDbAlignedDimension
 13
164.0541352886303
 23
480.0
 33
0.0
 14
164.0541352886303
 24
576.0
 34
0.0
 50
90.0
100
AcDbRotatedDimension
1001
ACAD
1000
DSTYLE
1002
{
1070
   279
1070
     1
1002
}
  0
DIMENSION
  5
1369
330
1F
100
AcDbEntity
  8
0
100
AcDbDimension
  2
*D92
 10
134.0541352886303
 20
431.1097763448383
 30
0.0
 11
155.0541352886303
 21
431.1097763448383
 31
0.0
 70
    32
 71
     5
 42
42.0
 73
     0
 74
     0
 75
     0
  3
Jennifer
100
AcDbAlignedDimension
 13
176.0541352886303
 23
414.0
 33
0.0
 14
134.0541352886303
 24
431.1097763448383
 34
0.0
100
AcDbRotatedDimension
1001
ACAD
1000
DSTYLE
1002
{
1070
   279
1070
     1
1002
}
  0
DIMENSION
  5
1376
330
1F
100
AcDbEntity
  8
0
100
AcDbDimension
  2
*D93
 10
266.0541352886303
 20
431.1097763448383
 30
0.0
 11
221.0541352886303
 21
431.1097763448383
 31
0.0
 70
    32
 71
     5
 42
90.0
 73
     0
 74
     0
 75
     0
  3
Jennifer
100
AcDbAlignedDimension
 13
176.0541352886303
 23
431.1097763448383
 33
0.0
 14
266.0541352886303
 24
431.1097763448383
 34
0.0
100
AcDbRotatedDimension
  0
DIMENSION
  5
1404
330
1F
100
AcDbEntity
  8
0
100
AcDbDimension
  2
*D94
 10
787.1791352886303
 20
-75.5223173878071
 30
0.0
 11
523.1791352886303
 21
-75.5223173878071
 31
0.0
 70
    32
 71
     5
 42
528.0
 73
     0
 74
     0
 75
     0
  3
Jennifer
100
AcDbAlignedDimension
 13
259.1791352886303
 23
0.0
 33
0.0
 14
787.1791352886303
 24
0.0
 34
0.0
100
AcDbRotatedDimension
  0
DIMENSION
  5
1405
330
1F
100
AcDbEntity
  8
0
100
AcDbDimension
  2
*D95
 10
355.1791352886303
 20
-56.2210201134917
 30
0.0
 11
307.1791352886303
 21
-56.2210201134917
 31
0.0
 70
    32
 71
     5
 42
96.0
 73
     0
 74
     0
 75
     0
  3
Jennifer
100
AcDbAlignedDimension
 13
259.1791352886303
 23
0.0
 33
0.0
 14
355.1791352886303
 24
-56.2210201134917
 34
0.0
100
AcDbRotatedDimension
  0
DIMENSION
  5
1406
330
1F
100
AcDbEntity
  8
0
100
AcDbDimension
  2
*D96
 10
691.1791352886303
 20
-56.2210201134917
 30
0.0
 11
739.1791352886303
 21
-56.2210201134917
 31
0.0
 70
    32
 71
     5
 42
96.0
 73
     0
 74
     0
 75
     0
  3
Jennifer
100
AcDbAlignedDimension
 13
787.1791352886303
 23
0.0
 33
0.0
 14
691.1791352886303
 24
0.0
 34
0.0
100
AcDbRotatedDimension
  0
DIMENSION
  5
1407
330
1F
100
AcDbEntity
  8
0
100
AcDbDimension
  2
*D97
 10
443.1791352886303
 20
-56.2210201134917
 30
0.0
 11
483.1791352886303
 21
-56.2210201134917
 31
0.0
 70
    32
 71
     5
 42
80.0
 73
     0
 74
     0
 75
     0
  3
Jennifer
100
AcDbAlignedDimension
 13
523.1791352886303
 23
-16.0
 33
0.0
 14
443.1791352886303
 24
-16.0
 34
0.0
100
AcDbRotatedDimension
  0
DIMENSION
  5
1408
330
1F
100
AcDbEntity
  8
0
100
AcDbDimension
  2
*D98
 10
355.1791352886303
 20
-56.2210201134917
 30
0.0
 11
399.1791352886303
 21
-56.2210201134917
 31
0.0
 70
    32
 71
     5
 42
88.0
 73
     0
 74
     0
 75
     0
  3
Jennifer
100
AcDbAlignedDimension
 13
443.1791352886303
 23
-16.0
 33
0.0
 14
355.1791352886303
 24
-16.0
 34
0.0
100
AcDbRotatedDimension
  0
DIMENSION
  5
1409
330
1F
100
AcDbEntity
  8
0
100
AcDbDimension
  2
*D99
 10
603.1791352886303
 20
-56.2210201134917
 30
0.0
 11
647.1791352886303
 21
-56.2210201134917
 31
0.0
 70
    32
 71
     5
 42
88.0
 73
     0
 74
     0
 75
     0
  3
Jennifer
100
AcDbAlignedDimension
 13
691.1791352886303
 23
0.0
 33
0.0
 14
603.1791352886303
 24
0.0
 34
0.0
100
AcDbRotatedDimension
  0
DIMENSION
  5
140A
330
1F
100
AcDbEntity
  8
0
100
AcDbDimension
  2
*D100
 10
523.1791352886303
 20
-56.2210201134917
 30
0.0
 11
563.1791352886303
 21
-56.2210201134917
 31
0.0
 70
    32
 71
     5
 42
80.0
 73
     0
 74
     0
 75
     0
  3
Jennifer
100
AcDbAlignedDimension
 13
603.1791352886303
 23
-56.2210201134917
 33
0.0
 14
523.1791352886303
 24
-56.2210201134917
 34
0.0
100
AcDbRotatedDimension
  0
DIMENSION
  5
140B
330
1F
100
AcDbEntity
  8
0
100
AcDbDimension
  2
*D101
 10
77.18410120368571
 20
912.0
 30
0.0
 11
77.18410120368554
 21
456.0000000000001
 31
0.0
 70
    32
 71
     5
 42
911.9999999999999
 73
     0
 74
     0
 75
     0
  3
Jennifer
100
AcDbAlignedDimension
 13
259.1791352886303
 23
0.0
 33
0.0
 14
163.1791352886303
 24
912.0
 34
0.0
 50
90.0
100
AcDbRotatedDimension
  0
DIMENSION
  5
140C
330
1F
100
AcDbEntity
  8
0
100
AcDbDimension
  2
*D102
 10
105.7179315060239
 20
576.0
 30
0.0
 11
105.7179315060238
 21
288.0000000000001
 31
0.0
 70
    32
 71
     5
 42
575.9999999999999
 73
     0
 74
     0
 75
     0
  3
Jennifer
100
AcDbAlignedDimension
 13
259.1791352886303
 23
0.0
 33
0.0
 14
163.1791352886303
 24
576.0
 34
0.0
 50
90.0
100
AcDbRotatedDimension
  0
DIMENSION
  5
140D
330
1F
100
AcDbEntity
  8
0
100
AcDbDimension
  2
*D103
 10
133.656494137198
 20
432.0
 30
0.0
 11
133.656494137198
 21
504.0
 31
0.0
 70
    32
 71
     5
 42
143.9999999999999
 73
     0
 74
     0
 75
     0
  3
Jennifer
100
AcDbAlignedDimension
 13
163.1791352886303
 23
576.0
 33
0.0
 14
163.1791352886303
 24
432.0
 34
0.0
 50
90.0
100
AcDbRotatedDimension
  0
DIMENSION
  5
140E
330
1F
100
AcDbEntity
  8
0
100
AcDbDimension
  2
*D104
 10
133.656494137198
 20
288.0
 30
0.0
 11
133.656494137198
 21
360.0000000000001
 31
0.0
 70
    32
 71
     5
 42
144.0
 73
     0
 74
     0
 75
     0
  3
Jennifer
100
AcDbAlignedDimension
 13
133.656494137198
 23
432.0
 33
0.0
 14
133.656494137198
 24
288.0
 34
0.0
 50
90.0
100
AcDbRotatedDimension
  0
DIMENSION
  5
140F
330
1F
100
AcDbEntity
  8
0
100
AcDbDimension
  2
*D105
 10
133.6564941371979
 20
48.00000000000003
 30
0.0
 11
133.6564941371979
 21
79.00000000000004
 31
0.0
 70
    32
 71
     5
 42
61.99999999999999
 73
     0
 74
     0
 75
     0
  3
Jennifer
100
AcDbAlignedDimension
 13
223.1791352886303
 23
110.0
 33
0.0
 14
223.1791352886303
 24
48.0
 34
0.0
 50
90.0
100
AcDbRotatedDimension
  0
DIMENSION
  5
1410
330
1F
100
AcDbEntity
  8
0
100
AcDbDimension
  2
*D106
 10
133.6564941371979
 20
0.0000000000000284
 30
0.0
 11
133.6564941371979
 21
24.00000000000005
 31
0.0
 70
    32
 71
     5
 42
48.0
 73
     0
 74
     0
 75
     0
  3
Jennifer
100
AcDbAlignedDimension
 13
133.6564941371979
 23
48.00000000000003
 33
0.0
 14
133.6564941371979
 24
0.0000000000000284
 34
0.0
 50
90.0
100
AcDbRotatedDimension
  0
DIMENSION
  5
1411
330
1F
100
AcDbEntity
  8
0
100
AcDbDimension
  2
*D107
 10
133.656494137198
 20
182.0
 30
0.0
 11
133.656494137198
 21
235.0000000000001
 31
0.0
 70
    32
 71
     5
 42
106.0
 73
     0
 74
     0
 75
     0
  3
Jennifer
100
AcDbAlignedDimension
 13
259.1791352886303
 23
288.0
 33
0.0
 14
259.1791352886303
 24
182.0
 34
0.0
 50
90.0
100
AcDbRotatedDimension
  0
DIMENSION
  5
1412
330
1F
100
AcDbEntity
  8
0
100
AcDbDimension
  2
*D108
 10
133.656494137198
 20
110.0
 30
0.0
 11
133.656494137198
 21
146.0000000000001
 31
0.0
 70
    32
 71
     5
 42
72.00000000000001
 73
     0
 74
     0
 75
     0
  3
Jennifer
100
AcDbAlignedDimension
 13
223.1791352886303
 23
182.0
 33
0.0
 14
223.1791352886303
 24
110.0
 34
0.0
 50
90.0
100
AcDbRotatedDimension
  0
DIMENSION
  5
1413
330
1F
100
AcDbEntity
  8
0
100
AcDbDimension
  2
*D109
 10
105.7179315060239
 20
576.0
 30
0.0
 11
105.7179315060238
 21
744.0
 31
0.0
 70
    32
 71
     5
 42
336.0
 73
     0
 74
     0
 75
     0
  3
Jennifer
100
AcDbAlignedDimension
 13
163.1791352886303
 23
912.0
 33
0.0
 14
163.1791352886303
 24
576.0
 34
0.0
 50
90.0
100
AcDbRotatedDimension
  0
DIMENSION
  5
1414
330
1F
100
AcDbEntity
  8
0
100
AcDbDimension
  2
*D110
 10
128.7969878743352
 20
668.0
 30
0.0
 11
128.7969878743351
 21
744.0
 31
0.0
 70
    32
 71
     5
 42
152.0
 73
     0
 74
     0
 75
     0
  3
Jennifer
100
AcDbAlignedDimension
 13
163.1791352886303
 23
820.0
 33
0.0
 14
128.7969878743352
 24
668.0
 34
0.0
 50
90.0
100
AcDbRotatedDimension
  0
DIMENSION
  5
1415
330
1F
100
AcDbEntity
  8
0
100
AcDbDimension
  2
*D111
 10
128.7969878743352
 20
668.0
 30
0.0
 11
128.7969878743351
 21
622.0
 31
0.0
 70
    32
 71
     5
 42
92.0
 73
     0
 74
     0
 75
     0
  3
Jennifer
100
AcDbAlignedDimension
 13
163.1791352886303
 23
576.0
 33
0.0
 14
128.7969878743352
 24
668.0
 34
0.0
 50
90.0
100
AcDbRotatedDimension
  0
LINE
  5
1416
330
1F
100
AcDbEntity
  8
0
100
AcDbLine
 10
128.7969878743352
 20
668.0
 30
0.0
 11
157.1791352886303
 21
668.0
 31
0.0
  0
DIMENSION
  5
1417
330
1F
100
AcDbEntity
  8
0
100
AcDbDimension
  2
*D112
 10
128.7969878743352
 20
820.0
 30
0.0
 11
128.7969878743351
 21
866.0
 31
0.0
 70
    32
 71
     5
 42
92.0
 73
     0
 74
     0
 75
     0
  3
Jennifer
100
AcDbAlignedDimension
 13
163.1791352886303
 23
912.0
 33
0.0
 14
163.1791352886303
 24
820.0
 34
0.0
 50
90.0
100
AcDbRotatedDimension
  0
DIMENSION
  5
1418
330
1F
100
AcDbEntity
  8
0
100
AcDbDimension
  2
*D113
 10
934.7199822841294
 20
-0.0000000000000418
 30
0.0
 11
934.7199822841294
 21
456.0000000000001
 31
0.0
 70
    32
 71
     5
 42
911.9999999999999
 73
     0
 74
     0
 75
     0
  3
Jennifer
100
AcDbAlignedDimension
 13
499.1791352886303
 23
912.0
 33
0.0
 14
787.1791352886303
 24
0.0
 34
0.0
 50
90.0
100
AcDbRotatedDimension
  0
DIMENSION
  5
1419
330
1F
100
AcDbEntity
  8
0
100
AcDbDimension
  2
*D114
 10
905.2911711648294
 20
383.9999999999999
 30
0.0
 11
905.2911711648293
 21
648.0000000000001
 31
0.0
 70
    32
 71
     5
 42
528.0
 73
     0
 74
     0
 75
     0
  3
Jennifer
100
AcDbAlignedDimension
 13
499.1791352886303
 23
912.0
 33
0.0
 14
499.1791352886303
 24
384.0
 34
0.0
 50
90.0
100
AcDbRotatedDimension
  0
DIMENSION
  5
141A
330
1F
100
AcDbEntity
  8
0
100
AcDbDimension
  2
*D115
 10
869.5030068145516
 20
91.99999999999997
 30
0.0
 11
869.5030068145516
 21
192.0000000000001
 31
0.0
 70
    32
 71
     5
 42
200.0
 73
     0
 74
     0
 75
     0
  3
Jennifer
100
AcDbAlignedDimension
 13
787.1791352886303
 23
292.0
 33
0.0
 14
787.1791352886303
 24
92.0
 34
0.0
 50
90.0
100
AcDbRotatedDimension
  0
DIMENSION
  5
141B
330
1F
100
AcDbEntity
  8
0
100
AcDbDimension
  2
*D116
 10
905.2911711648293
 20
-0.0000000000000335
 30
0.0
 11
905.2911711648293
 21
192.0000000000001
 31
0.0
 70
    32
 71
     5
 42
384.0
 73
     0
 74
     0
 75
     0
  3
Jennifer
100
AcDbAlignedDimension
 13
787.1791352886303
 23
384.0
 33
0.0
 14
787.1791352886303
 24
0.0
 34
0.0
 50
90.0
100
AcDbRotatedDimension
  0
DIMENSION
  5
141C
330
1F
100
AcDbEntity
  8
0
100
AcDbDimension
  2
*D117
 10
869.5030068145516
 20
-0.0000000000000233
 30
0.0
 11
869.5030068145516
 21
46.00000000000012
 31
0.0
 70
    32
 71
     5
 42
92.0
 73
     0
 74
     0
 75
     0
  3
Jennifer
100
AcDbAlignedDimension
 13
787.1791352886303
 23
92.0
 33
0.0
 14
787.1791352886303
 24
0.0
 34
0.0
 50
90.0
100
AcDbRotatedDimension
  0
DIMENSION
  5
141D
330
1F
100
AcDbEntity
  8
0
100
AcDbDimension
  2
*D118
 10
869.5030068145517
 20
384.0
 30
0.0
 11
869.5030068145516
 21
338.0000000000001
 31
0.0
 70
    32
 71
     5
 42
92.0
 73
     0
 74
     0
 75
     0
  3
Jennifer
100
AcDbAlignedDimension
 13
787.1791352886303
 23
292.0
 33
0.0
 14
787.1791352886303
 24
384.0
 34
0.0
 50
90.0
100
AcDbRotatedDimension
  0
DIMENSION
  5
141E
330
1F
100
AcDbEntity
  8
0
100
AcDbDimension
  2
*D119
 10
532.6309056910095
 20
384.0
 30
0.0
 11
532.6309056910094
 21
526.0000000000001
 31
0.0
 70
    32
 71
     5
 42
284.0
 73
     0
 74
     0
 75
     0
  3
Jennifer
100
AcDbAlignedDimension
 13
532.6309056910095
 23
668.0
 33
0.0
 14
532.6309056910095
 24
384.0
 34
0.0
 50
90.0
100
AcDbRotatedDimension
1001
ACAD
1000
DSTYLE
1002
{
1070
   279
1070
     1
1002
}
  0
DIMENSION
  5
141F
330
1F
100
AcDbEntity
  8
0
100
AcDbDimension
  2
*D120
 10
691.1791352886303
 20
418.3120396104589
 30
0.0
 11
739.1791352886303
 21
418.3120396104589
 31
0.0
 70
    32
 71
     5
 42
96.0
 73
     0
 74
     0
 75
     0
  3
Jennifer
100
AcDbAlignedDimension
 13
787.1791352886303
 23
384.0
 33
0.0
 14
691.1791352886303
 24
384.0
 34
0.0
100
AcDbRotatedDimension
  0
DIMENSION
  5
1420
330
1F
100
AcDbEntity
  8
0
100
AcDbDimension
  2
*D121
 10
499.1791352886303
 20
418.3120396104589
 30
0.0
 11
518.1791352886303
 21
418.3120396104589
 31
0.0
 70
    32
 71
     5
 42
38.0
 73
     0
 74
     0
 75
     0
  3
Jennifer
100
AcDbAlignedDimension
 13
537.1791352886303
 23
418.3120396104589
 33
0.0
 14
499.1791352886303
 24
418.3120396104589
 34
0.0
100
AcDbRotatedDimension
  0
DIMENSION
  5
1421
330
1F
100
AcDbEntity
  8
0
100
AcDbDimension
  2
*D122
 10
537.1791352886303
 20
418.3120396104589
 30
0.0
 11
614.1791352886303
 21
418.3120396104589
 31
0.0
 70
    32
 71
     5
 42
154.0
 73
     0
 74
     0
 75
     0
  3
Jennifer
100
AcDbAlignedDimension
 13
691.1791352886303
 23
418.3120396104589
 33
0.0
 14
537.1791352886303
 24
418.3120396104589
 34
0.0
100
AcDbRotatedDimension
  0
DIMENSION
  5
1422
330
1F
100
AcDbEntity
  8
0
100
AcDbDimension
  2
*D123
 10
532.6309056910095
 20
668.0
 30
0.0
 11
532.6309056910094
 21
744.0000000000001
 31
0.0
 70
    32
 71
     5
 42
152.0
 73
     0
 74
     0
 75
     0
  3
Jennifer
100
AcDbAlignedDimension
 13
532.6309056910095
 23
820.0
 33
0.0
 14
532.6309056910095
 24
668.0
 34
0.0
 50
90.0
100
AcDbRotatedDimension
  0
LINE
  5
1423
330
1F
100
AcDbEntity
  8
0
100
AcDbLine
 10
532.6309056910095
 20
668.0
 30
0.0
 11
505.1791352886303
 21
668.0
 31
0.0
  0
DIMENSION
  5
1424
330
1F
100
AcDbEntity
  8
0
100
AcDbDimension
  2
*D124
 10
532.6309056910095
 20
820.0
 30
0.0
 11
532.6309056910093
 21
866.0000000000001
 31
0.0
 70
    32
 71
     5
 42
92.0
 73
     0
 74
     0
 75
     0
  3
Jennifer
100
AcDbAlignedDimension
 13
499.1791352886303
 23
912.0
 33
0.0
 14
499.1791352886303
 24
820.0
 34
0.0
 50
90.0
100
AcDbRotatedDimension
  0
DIMENSION
  5
16EE
330
1F
100
AcDbEntity
  8
0
100
AcDbDimension
  2
*D126
 10
508.9772221856138
 20
-90.0
 30
0.0
 11
508.9772221856138
 21
-52.99999999999991
 31
0.0
 70
    32
 71
     5
 42
74.0
 73
     0
 74
     0
 75
     0
  3
Jennifer
100
AcDbAlignedDimension
 13
493.1791352886303
 23
-16.0
 33
0.0
 14
493.1791352886303
 24
-90.0
 34
0.0
 50
90.0
100
AcDbRotatedDimension
  0
VIEWPORT
  5
5B
330
1B
100
AcDbEntity
 67
     1
  8
0
100
AcDbViewport
 10
3.968749891115925
 20
4.915416672473817
 30
0.0
 40
24.08597016981072
 41
11.63799974576695
 68
     1
 69
     1
 12
3.968749891115925
 22
4.915416672473817
 13
0.0
 23
0.0
 14
0.5
 24
0.5
 15
0.5
 25
0.5
 16
0.0
 26
0.0
 36
1.0
 17
0.0
 27
0.0
 37
0.0
 42
50.0
 43
0.0
 44
0.0
 45
11.63799974576695
 50
0.0
 51
0.0
 72
   100
 90
    32800
  1

281
     0
 71
     1
 74
     0
110
0.0
120
0.0
130
0.0
111
1.0
121
0.0
131
0.0
112
0.0
122
1.0
132
0.0
 79
     0
146
0.0
170
     0
 61
     5
292
     1
282
     1
141
0.0
142
0.0
 63
   256
  0
VIEWPORT
  5
5D
330
1B
100
AcDbEntity
 67
     1
  8
0
100
AcDbViewport
 10
5.145208516458826
 20
3.96875012577988
 30
0.0
 40
8.232333626334121
 41
6.350000201247807
 68
     2
 69
     2
 12
216.0
 22
448.0
 13
0.0
 23
0.0
 14
120.0
 24
120.0
 15
120.0
 25
120.0
 16
0.0
 26
0.0
 36
1.0
 17
0.0
 27
0.0
 37
0.0
 42
50.0
 43
0.0
 44
0.0
 45
957.0
 50
0.0
 51
0.0
 72
   100
 90
    33376
  1

281
     0
 71
     1
 74
     0
110
0.0
120
0.0
130
0.0
111
1.0
121
0.0
131
0.0
112
0.0
122
1.0
132
0.0
 79
     0
146
0.0
170
     0
 61
     5
292
     1
282
     1
141
0.0
142
0.0
 63
   256
  0
ENDSEC
  0
SECTION
  2
OBJECTS
  0
DICTIONARY
  5
C
330
0
100
AcDbDictionary
281
     1
  3
ACAD_GROUP
350
D
  3
ACAD_LAYOUT
350
1A
  3
ACAD_MLEADERSTYLE
350
172A
  3
ACAD_MLINESTYLE
350
17
  3
ACAD_PLOTSETTINGS
350
19
  3
ACAD_PLOTSTYLENAME
350
E
  3
ACAD_SCALELIST
350
1707
  3
ACAD_TABLESTYLE
350
1729
  3
AcDbVariableDictionary
350
1705
  0
DICTIONARY
  5
1703
330
2
100
AcDbDictionary
280
     1
281
     1
  0
DICTIONARY
  5
D
102
{ACAD_REACTORS
330
C
102
}
330
C
100
AcDbDictionary
281
     1
  0
DICTIONARY
  5
1A
102
{ACAD_REACTORS
330
C
102
}
330
C
100
AcDbDictionary
281
     1
  3
Layout1
350
1E
  3
Layout2
350
26
  3
Model
350
22
  0
DICTIONARY
  5
172A
102
{ACAD_REACTORS
330
C
102
}
330
C
100
AcDbDictionary
281
     1
  0
DICTIONARY
  5
17
102
{ACAD_REACTORS
330
C
102
}
330
C
100
AcDbDictionary
281
     1
  3
Standard
350
18
  0
DICTIONARY
  5
19
102
{ACAD_REACTORS
330
C
102
}
330
C
100
AcDbDictionary
281
     1
  0
ACDBDICTIONARYWDFLT
  5
E
102
{ACAD_REACTORS
330
C
102
}
330
C
100
AcDbDictionary
281
     1
  3
Normal
350
F
100
AcDbDictionaryWithDefault
340
F
  0
DICTIONARY
  5
1707
102
{ACAD_REACTORS
330
C
102
}
330
C
100
AcDbDictionary
281
     1
  3
A0
350
1708
  3
A1
350
1709
  3
A2
350
170A
  3
A3
350
170B
  3
A4
350
170C
  3
A5
350
170D
  3
A6
350
170E
  3
A7
350
170F
  3
A8
350
1710
  3
A9
350
1711
  3
B0
350
1712
  3
B1
350
1713
  3
B2
350
1714
  3
B3
350
1715
  3
B4
350
1716
  3
B5
350
1717
  3
B6
350
1718
  3
B7
350
1719
  3
B8
350
171A
  3
B9
350
171B
  3
C0
350
171C
  3
C1
350
171D
  3
C2
350
171E
  3
C3
350
171F
  3
C4
350
1720
  3
C5
350
1721
  3
C6
350
1722
  3
C7
350
1723
  3
C8
350
1724
  3
C9
350
1725
  3
D0
350
1726
  3
D1
350
1727
  3
D2
350
1728
  0
DICTIONARY
  5
1729
102
{ACAD_REACTORS
330
C
102
}
330
C
100
AcDbDictionary
281
     1
  0
DICTIONARY
  5
1705
102
{ACAD_REACTORS
330
C
102
}
330
C
100
AcDbDictionary
281
     1
  3
CANNOSCALE
350
172B
  3
DIMASSOC
350
1706
  0
LAYOUT
  5
1E
102
{ACAD_REACTORS
330
1A
102
}
330
1A
100
AcDbPlotSettings
  1

  2
HP OfficeJet Series 700 Printer
  4
Letter
  6

 40
7.143749713897705
 41
14.84841346740723
 42
7.14373779296875
 43
3.17498779296875
 44
215.8999938964844
 45
279.3999938964844
 46
0.0
 47
0.0
 48
0.0
 49
0.0
140
0.0
141
0.0
142
1.0
143
1.0
 70
   688
 72
     0
 73
     0
 74
     5
  7

 75
    16
 76
     0
 77
     2
 78
   300
147
1.0
148
0.0
149
0.0
100
AcDbLayout
  1
Layout1
 70
     1
 71
     1
 10
-0.2812499887361301
 20
-0.5845832073782372
 11
8.218749770967978
 21
10.41541655232587
 12
0.0
 22
0.0
 32
0.0
 14
1.029041703291766
 24
0.7937500251559761
 34
0.0
 15
9.261375329625887
 25
7.143750226403784
 35
0.0
146
0.0
 13
0.0
 23
0.0
 33
0.0
 16
1.0
 26
0.0
 36
0.0
 17
0.0
 27
1.0
 37
0.0
 76
     0
330
1B
331
5B
  0
LAYOUT
  5
26
102
{ACAD_REACTORS
330
1A
102
}
330
1A
100
AcDbPlotSettings
  1

  2
HP OfficeJet Series 700 Printer
  4

  6

 40
0.0
 41
0.0
 42
0.0
 43
0.0
 44
0.0
 45
0.0
 46
0.0
 47
0.0
 48
0.0
 49
0.0
140
0.0
141
0.0
142
1.0
143
1.0
 70
   688
 72
     0
 73
     0
 74
     5
  7

 75
    16
 76
     0
 77
     2
 78
   300
147
1.0
148
0.0
149
0.0
100
AcDbLayout
  1
Layout2
 70
     1
 71
     2
 10
0.0
 20
0.0
 11
12.0
 21
9.0
 12
0.0
 22
0.0
 32
0.0
 14
0.0
 24
0.0
 34
0.0
 15
0.0
 25
0.0
 35
0.0
146
0.0
 13
0.0
 23
0.0
 33
0.0
 16
1.0
 26
0.0
 36
0.0
 17
0.0
 27
1.0
 37
0.0
 76
     0
330
23
  0
LAYOUT
  5
22
102
{ACAD_REACTORS
330
1A
102
}
330
1A
100
AcDbPlotSettings
  1

  2
HP OfficeJet Series 700 Printer
  4
Letter
  6

 40
7.143749713897705
 41
14.84841346740723
 42
7.14373779296875
 43
3.17498779296875
 44
215.8999938964844
 45
279.3999938964844
 46
0.0
 47
0.0
 48
0.0
 49
0.0
140
0.0
141
0.0
142
1.0
143
279.5093289521782
 70
 11952
 72
     0
 73
     0
 74
     0
  7

 75
     0
 76
     0
 77
     2
 78
   300
147
0.0035776981174431
148
21316.75155899135
149
2689.388210065645
100
AcDbLayout
  1
Model
 70
     1
 71
     0
 10
0.0
 20
0.0
 11
12.0
 21
9.0
 12
0.0
 22
0.0
 32
0.0
 14
0.0
 24
0.0
 34
0.0
 15
0.0
 25
0.0
 35
0.0
146
0.0
 13
0.0
 23
0.0
 33
0.0
 16
1.0
 26
0.0
 36
0.0
 17
0.0
 27
1.0
 37
0.0
 76
     0
330
1F
331
1704
  0
MLINESTYLE
  5
18
102
{ACAD_REACTORS
330
17
102
}
330
17
100
AcDbMlineStyle
  2
STANDARD
 70
     0
  3

 62
   256
 51
90.0
 52
90.0
 71
     2
 49
0.5
 62
   256
  6
BYLAYER
 49
-0.5
 62
   256
  6
BYLAYER
  0
ACDBPLACEHOLDER
  5
F
102
{ACAD_REACTORS
330
E
102
}
330
E
  0
SCALE
  5
1708
102
{ACAD_REACTORS
330
1707
102
}
330
1707
100
AcDbScale
 70
     0
300
1:1
140
1.0
141
1.0
290
     1
  0
SCALE
  5
1709
102
{ACAD_REACTORS
330
1707
102
}
330
1707
100
AcDbScale
 70
     0
300
1:2
140
1.0
141
2.0
290
     0
  0
SCALE
  5
170A
102
{ACAD_REACTORS
330
1707
102
}
330
1707
100
AcDbScale
 70
     0
300
1:4
140
1.0
141
4.0
290
     0
  0
SCALE
  5
170B
102
{ACAD_REACTORS
330
1707
102
}
330
1707
100
AcDbScale
 70
     0
300
1:5
140
1.0
141
5.0
290
     0
  0
SCALE
  5
170C
102
{ACAD_REACTORS
330
1707
102
}
330
1707
100
AcDbScale
 70
     0
300
1:8
140
1.0
141
8.0
290
     0
  0
SCALE
  5
170D
102
{ACAD_REACTORS
330
1707
102
}
330
1707
100
AcDbScale
 70
     0
300
1:10
140
1.0
141
10.0
290
     0
  0
SCALE
  5
170E
102
{ACAD_REACTORS
330
1707
102
}
330
1707
100
AcDbScale
 70
     0
300
1:16
140
1.0
141
16.0
290
     0
  0
SCALE
  5
170F
102
{ACAD_REACTORS
330
1707
102
}
330
1707
100
AcDbScale
 70
     0
300
1:20
140
1.0
141
20.0
290
     0
  0
SCALE
  5
1710
102
{ACAD_REACTORS
330
1707
102
}
330
1707
100
AcDbScale
 70
     0
300
1:30
140
1.0
141
30.0
290
     0
  0
SCALE
  5
1711
102
{ACAD_REACTORS
330
1707
102
}
330
1707
100
AcDbScale
 70
     0
300
1:40
140
1.0
141
40.0
290
     0
  0
SCALE
  5
1712
102
{ACAD_REACTORS
330
1707
102
}
330
1707
100
AcDbScale
 70
     0
300
1:50
140
1.0
141
50.0
290
     0
  0
SCALE
  5
1713
102
{ACAD_REACTORS
330
1707
102
}
330
1707
100
AcDbScale
 70
     0
300
1:100
140
1.0
141
100.0
290
     0
  0
SCALE
  5
1714
102
{ACAD_REACTORS
330
1707
102
}
330
1707
100
AcDbScale
 70
     0
300
2:1
140
2.0
141
1.0
290
     0
  0
SCALE
  5
1715
102
{ACAD_REACTORS
330
1707
102
}
330
1707
100
AcDbScale
 70
     0
300
4:1
140
4.0
141
1.0
290
     0
  0
SCALE
  5
1716
102
{ACAD_REACTORS
330
1707
102
}
330
1707
100
AcDbScale
 70
     0
300
8:1
140
8.0
141
1.0
290
     0
  0
SCALE
  5
1717
102
{ACAD_REACTORS
330
1707
102
}
330
1707
100
AcDbScale
 70
     0
300
10:1
140
10.0
141
1.0
290
     0
  0
SCALE
  5
1718
102
{ACAD_REACTORS
330
1707
102
}
330
1707
100
AcDbScale
 70
     0
300
100:1
140
100.0
141
1.0
290
     0
  0
SCALE
  5
1719
102
{ACAD_REACTORS
330
1707
102
}
330
1707
100
AcDbScale
 70
     0
300
1/128" = 1'-0"
140
0.0078125
141
12.0
290
     0
  0
SCALE
  5
171A
102
{ACAD_REACTORS
330
1707
102
}
330
1707
100
AcDbScale
 70
     0
300
1/64" = 1'-0"
140
0.015625
141
12.0
290
     0
  0
SCALE
  5
171B
102
{ACAD_REACTORS
330
1707
102
}
330
1707
100
AcDbScale
 70
     0
300
1/32" = 1'-0"
140
0.03125
141
12.0
290
     0
  0
SCALE
  5
171C
102
{ACAD_REACTORS
330
1707
102
}
330
1707
100
AcDbScale
 70
     0
300
1/16" = 1'-0"
140
0.0625
141
12.0
290
     0
  0
SCALE
  5
171D
102
{ACAD_REACTORS
330
1707
102
}
330
1707
100
AcDbScale
 70
     0
300
3/32" = 1'-0"
140
0.09375
141
12.0
290
     0
  0
SCALE
  5
171E
102
{ACAD_REACTORS
330
1707
102
}
330
1707
100
AcDbScale
 70
     0
300
1/8" = 1'-0"
140
0.125
141
12.0
290
     0
  0
SCALE
  5
171F
102
{ACAD_REACTORS
330
1707
102
}
330
1707
100
AcDbScale
 70
     0
300
3/16" = 1'-0"
140
0.1875
141
12.0
290
     0
  0
SCALE
  5
1720
102
{ACAD_REACTORS
330
1707
102
}
330
1707
100
AcDbScale
 70
     0
300
1/4" = 1'-0"
140
0.25
141
12.0
290
     0
  0
SCALE
  5
1721
102
{ACAD_REACTORS
330
1707
102
}
330
1707
100
AcDbScale
 70
     0
300
3/8" = 1'-0"
140
0.375
141
12.0
290
     0
  0
SCALE
  5
1722
102
{ACAD_REACTORS
330
1707
102
}
330
1707
100
AcDbScale
 70
     0
300
1/2" = 1'-0"
140
0.5
141
12.0
290
     0
  0
SCALE
  5
1723
102
{ACAD_REACTORS
330
1707
102
}
330
1707
100
AcDbScale
 70
     0
300
3/4" = 1'-0"
140
0.75
141
12.0
290
     0
  0
SCALE
  5
1724
102
{ACAD_REACTORS
330
1707
102
}
330
1707
100
AcDbScale
 70
     0
300
1" = 1'-0"
140
1.0
141
12.0
290
     0
  0
SCALE
  5
1725
102
{ACAD_REACTORS
330
1707
102
}
330
1707
100
AcDbScale
 70
     0
300
1-1/2" = 1'-0"
140
1.5
141
12.0
290
     0
  0
SCALE
  5
1726
102
{ACAD_REACTORS
330
1707
102
}
330
1707
100
AcDbScale
 70
     0
300
3" = 1'-0"
140
3.0
141
12.0
290
     0
  0
SCALE
  5
1727
102
{ACAD_REACTORS
330
1707
102
}
330
1707
100
AcDbScale
 70
     0
300
6" = 1'-0"
140
6.0
141
12.0
290
     0
  0
SCALE
  5
1728
102
{ACAD_REACTORS
330
1707
102
}
330
1707
100
AcDbScale
 70
     0
300
1'-0" = 1'-0"
140
12.0
141
12.0
290
     0
  0
DICTIONARYVAR
  5
172B
102
{ACAD_REACTORS
330
1705
102
}
330
1705
100
DictionaryVariables
280
     0
  1
1:1
  0
DICTIONARYVAR
  5
1706
102
{ACAD_REACTORS
330
1705
102
}
330
1705
100
DictionaryVariables
280
     0
  1
1
  0
ENDSEC
  0
EOF
